<?xml version="1.0" standalone="no"?>
<!DOCTYPE svg PUBLIC "-//W3C//DTD SVG 1.1//EN" "http://www.w3.org/Graphics/SVG/1.1/DTD/svg11.dtd">
<svg xmlns="http://www.w3.org/2000/svg">
<metadata>Copyright (C) 2021 by original authors @ fontello.com</metadata>
<defs>
<font id="klbtheme" horiz-adv-x="1000" >
<font-face font-family="klbtheme" font-weight="400" font-stretch="normal" units-per-em="1000" ascent="850" descent="-150" />
<missing-glyph horiz-adv-x="1000" />
<glyph glyph-name="mail" unicode="&#xe800;" d="M929 11v428q-18-20-39-36-149-115-238-189-28-24-46-37t-48-28-57-13h-2q-26 0-57 13t-48 28-46 37q-88 74-238 189-21 16-39 36v-428q0-7 6-13t12-5h822q7 0 12 5t6 13z m0 586v14t-1 7-1 7-3 5-5 4-8 2h-822q-7 0-12-6t-6-12q0-94 83-159 107-84 223-176 4-3 20-17t25-21 25-17 28-16 24-5h2q11 0 24 5t28 16 25 17 25 21 20 17q116 92 224 176 30 24 56 65t26 73z m71 21v-607q0-37-26-63t-63-27h-822q-36 0-63 27t-26 63v607q0 37 26 63t63 26h822q37 0 63-26t26-63z" horiz-adv-x="1000" />

<glyph glyph-name="heart-empty" unicode="&#xe801;" d="M929 517q0 46-12 80t-31 55-46 33-52 18-55 4-62-14-62-36-48-40-34-34q-10-13-27-13t-27 13q-14 15-34 34t-48 40-62 36-62 14-55-4-52-18-46-33-31-55-12-80q0-93 105-198l324-312 324 312q105 105 105 198z m71 0q0-123-128-251l-347-335q-10-10-25-10t-25 10l-348 336q-5 5-15 15t-31 37-38 54-30 67-13 77q0 123 71 192t196 70q34 0 70-12t67-33 54-38 42-38q20 20 42 38t54 38 67 33 70 12q125 0 196-70t71-192z" horiz-adv-x="1000" />

<glyph glyph-name="star" unicode="&#xe802;" d="M929 489q0-12-15-27l-202-197 48-279q0-4 0-12 0-11-6-19t-17-9q-10 0-22 7l-251 132-250-132q-12-7-23-7-11 0-17 9t-6 19q0 4 1 12l48 279-203 197q-14 15-14 27 0 21 31 26l280 40 126 254q11 23 27 23t28-23l125-254 280-40q32-5 32-26z" horiz-adv-x="928.6" />

<glyph glyph-name="star-empty" unicode="&#xe803;" d="M635 290l170 166-235 34-106 213-105-213-236-34 171-166-41-235 211 111 211-111z m294 199q0-12-15-27l-202-197 48-279q0-4 0-12 0-28-23-28-10 0-22 7l-251 132-250-132q-12-7-23-7-11 0-17 9t-6 19q0 4 1 12l48 279-203 197q-14 15-14 27 0 21 31 26l280 40 126 254q11 23 27 23t28-23l125-254 280-40q32-5 32-26z" horiz-adv-x="928.6" />

<glyph glyph-name="star-half" unicode="&#xe804;" d="M464 832v-747l-250-132q-12-7-23-7-11 0-17 9t-6 19q0 4 1 12l48 279-203 197q-14 15-14 27 0 21 31 26l280 40 126 254q11 23 27 23z" horiz-adv-x="500" />

<glyph glyph-name="heart-1" unicode="&#xe805;" d="M500-79q-14 0-25 10l-348 336q-5 5-15 15t-31 37-38 54-30 67-13 77q0 123 71 192t196 70q34 0 70-12t67-33 54-38 42-38q20 20 42 38t54 38 67 33 70 12q125 0 196-70t71-192q0-123-128-251l-347-335q-10-10-25-10z" horiz-adv-x="1000" />

<glyph glyph-name="video" unicode="&#xe806;" d="M214-43v72q0 14-10 25t-25 10h-72q-14 0-25-10t-11-25v-72q0-14 11-25t25-11h72q14 0 25 11t10 25z m0 214v72q0 14-10 25t-25 11h-72q-14 0-25-11t-11-25v-72q0-14 11-25t25-10h72q14 0 25 10t10 25z m0 215v71q0 15-10 25t-25 11h-72q-14 0-25-11t-11-25v-71q0-15 11-25t25-11h72q14 0 25 11t10 25z m572-429v286q0 14-11 25t-25 11h-429q-14 0-25-11t-10-25v-286q0-14 10-25t25-11h429q15 0 25 11t11 25z m-572 643v71q0 15-10 26t-25 10h-72q-14 0-25-10t-11-26v-71q0-14 11-25t25-11h72q14 0 25 11t10 25z m786-643v72q0 14-11 25t-25 10h-71q-15 0-25-10t-11-25v-72q0-14 11-25t25-11h71q15 0 25 11t11 25z m-214 429v285q0 15-11 26t-25 10h-429q-14 0-25-10t-10-26v-285q0-15 10-25t25-11h429q15 0 25 11t11 25z m214-215v72q0 14-11 25t-25 11h-71q-15 0-25-11t-11-25v-72q0-14 11-25t25-10h71q15 0 25 10t11 25z m0 215v71q0 15-11 25t-25 11h-71q-15 0-25-11t-11-25v-71q0-15 11-25t25-11h71q15 0 25 11t11 25z m0 214v71q0 15-11 26t-25 10h-71q-15 0-25-10t-11-26v-71q0-14 11-25t25-11h71q15 0 25 11t11 25z m71 89v-750q0-37-26-63t-63-26h-893q-36 0-63 26t-26 63v750q0 37 26 63t63 27h893q37 0 63-27t26-63z" horiz-adv-x="1071.4" />

<glyph glyph-name="picture" unicode="&#xe807;" d="M357 529q0-45-31-76t-76-32-76 32-31 76 31 76 76 31 76-31 31-76z m572-215v-250h-786v107l178 179 90-89 285 285z m53 393h-893q-7 0-12-5t-6-13v-678q0-7 6-13t12-5h893q7 0 13 5t5 13v678q0 8-5 13t-13 5z m89-18v-678q0-37-26-63t-63-27h-893q-36 0-63 27t-26 63v678q0 37 26 63t63 27h893q37 0 63-27t26-63z" horiz-adv-x="1071.4" />

<glyph glyph-name="videocam" unicode="&#xe808;" d="M1000 654v-608q0-23-22-32-7-3-14-3-15 0-25 10l-225 225v-92q0-67-47-114t-113-47h-393q-67 0-114 47t-47 114v392q0 67 47 114t114 47h393q66 0 113-47t47-114v-92l225 225q10 10 25 10 7 0 14-2 22-10 22-33z" horiz-adv-x="1000" />

<glyph glyph-name="camera-1" unicode="&#xe809;" d="M536 475q66 0 113-47t47-114-47-113-113-47-114 47-47 113 47 114 114 47z m393 232q59 0 101-42t41-101v-500q0-59-41-101t-101-42h-786q-59 0-101 42t-42 101v500q0 59 42 101t101 42h125l28 76q11 27 39 47t58 20h286q29 0 57-20t39-47l29-76h125z m-393-643q103 0 176 74t74 176-74 177-176 73-177-73-73-177 73-176 177-74z" horiz-adv-x="1071.4" />

<glyph glyph-name="bookmark" unicode="&#xe80a;" d="M650 779q12 0 24-5 19-8 29-23t11-35v-719q0-19-11-35t-29-23q-10-4-24-4-27 0-47 18l-246 236-246-236q-20-19-46-19-13 0-25 5-18 7-29 23t-11 35v719q0 19 11 35t29 23q12 5 25 5h585z" horiz-adv-x="714.3" />

<glyph glyph-name="trash-empty" unicode="&#xe80b;" d="M286 439v-321q0-8-5-13t-13-5h-36q-8 0-13 5t-5 13v321q0 8 5 13t13 5h36q8 0 13-5t5-13z m143 0v-321q0-8-5-13t-13-5h-36q-8 0-13 5t-5 13v321q0 8 5 13t13 5h36q8 0 13-5t5-13z m142 0v-321q0-8-5-13t-12-5h-36q-8 0-13 5t-5 13v321q0 8 5 13t13 5h36q7 0 12-5t5-13z m72-404v529h-500v-529q0-12 4-22t8-15 6-5h464q2 0 6 5t8 15 4 22z m-375 601h250l-27 65q-4 5-9 6h-177q-6-1-10-6z m518-18v-36q0-8-5-13t-13-5h-54v-529q0-46-26-80t-63-34h-464q-37 0-63 33t-27 79v531h-53q-8 0-13 5t-5 13v36q0 8 5 13t13 5h172l39 93q9 21 31 35t44 15h178q23 0 44-15t30-35l39-93h173q8 0 13-5t5-13z" horiz-adv-x="785.7" />

<glyph glyph-name="right-dir" unicode="&#xe80c;" d="M321 350q0-14-10-25l-250-250q-11-11-25-11t-25 11-11 25v500q0 15 11 25t25 11 25-11l250-250q10-10 10-25z" horiz-adv-x="357.1" />

<glyph glyph-name="left-dir" unicode="&#xe80d;" d="M357 600v-500q0-14-10-25t-26-11-25 11l-250 250q-10 11-10 25t10 25l250 250q11 11 25 11t26-11 10-25z" horiz-adv-x="357.1" />

<glyph glyph-name="up-dir" unicode="&#xe80e;" d="M571 171q0-14-10-25t-25-10h-500q-15 0-25 10t-11 25 11 26l250 250q10 10 25 10t25-10l250-250q10-11 10-26z" horiz-adv-x="571.4" />

<glyph glyph-name="down-dir" unicode="&#xe80f;" d="M571 457q0-14-10-25l-250-250q-11-11-25-11t-25 11l-250 250q-11 11-11 25t11 25 25 11h500q14 0 25-11t10-25z" horiz-adv-x="571.4" />

<glyph glyph-name="left-arrow" unicode="&#xe810;" d="M12 322c0 0 0 0 0 0l204-203c15-15 40-15 55 0 15 16 15 40 0 56l-137 136h827c21 0 39 18 39 39 0 22-18 39-39 39h-827l137 136c15 16 15 40 0 56-15 15-40 15-55 0l-204-203c0 0 0 0 0 0-16-15-16-40 0-56z" horiz-adv-x="1000" />

<glyph glyph-name="user-1" unicode="&#xe811;" d="M500 788c-137 0-250-113-250-250s113-250 250-250 250 112 250 250-112 250-250 250z m0-417c-92 0-167 75-167 167s75 166 167 166c92 0 167-75 167-166s-75-167-167-167z m-437-459c37-16 37-16 37-16l0 0c0 0 0 0 0 0 0 0 0 4 4 8 4 4 9 13 17 25 12 21 37 50 67 79 62 59 162 113 312 113 150 0 250-58 313-113 33-29 54-58 66-79 9-12 13-21 17-25 0-4 4-4 4-8 0 0 0 0 0 0l0 0c0 0 0 0 38 16 37 17 37 17 37 17l0 0 0 0 0 0 0 0c0 0 0 0 0 4 0 4-4 4-4 9-4 8-13 16-21 33-17 25-42 58-79 92-75 66-196 137-367 137-175 0-291-66-366-137-38-34-63-67-80-92-8-13-16-25-20-33-5-5-5-9-5-9 0 0 0 0 0-4l0 0 0 0 0 0 0 0c-8 0-8 0 30-17z" horiz-adv-x="1000" />

<glyph glyph-name="shipment" unicode="&#xe812;" d="M908-56c-11-20-19-32-33-32s-22 12-33 32c-13 21-28 47-61 47s-48-26-60-47c-12-20-20-32-33-32s-22 12-34 32c-12 21-28 47-60 47-32 0-48-26-61-47-11-20-19-32-33-32s-22 12-33 32c-13 21-28 47-61 47s-48-26-60-47c-12-20-20-32-33-32s-22 12-34 32c-12 21-28 47-60 47s-48-26-61-47c-11-20-19-32-33-32s-22 12-33 32c-13 21-28 47-61 47v-32c14 0 22-12 34-31 12-21 28-47 60-47s48 26 60 47c12 19 20 31 34 31s21-12 33-31c13-21 28-47 61-47s47 26 60 47c12 19 19 31 33 31s22-12 34-31c12-21 28-47 60-47s48 26 60 47c12 19 20 31 34 31s21-12 33-31c13-21 28-47 61-47 32 0 47 26 60 47 12 19 19 31 33 31s22-12 34-31c12-21 28-47 60-47s48 26 60 47c12 19 20 31 34 31v32c-32 0-48-26-61-47z m0 109c-11-19-19-31-33-31s-22 12-33 31c-7 13-16 24-26 34l74 211c3 8-2 17-10 20 0 0-1 0-1 0l-10 3 21 55c3 8-1 17-9 20-1 0-2 0-2 0l-66 17v171c0 9-7 16-16 16h-109v109c0 26-21 47-47 47v47c0 9-7 16-16 16h-94c-8 0-15-7-15-16v-47h-32v47c0 9-7 16-15 16h-94c-9 0-16-7-16-16v-47c-26 0-46-21-46-47v-109h-110c-8 0-15-7-15-16v-171l-67-17c-8-2-13-10-11-19 0 0 0-1 1-2l22-54-11-3c-9-2-14-10-12-19 0 0 1-1 1-1l79-207c-13-10-24-23-31-38-12-19-20-31-34-31s-21 12-33 31c-13 21-28 47-61 47v-31c14 0 22-12 34-32 12-21 28-46 60-46s48 25 60 46c12 20 20 32 34 32s21-12 33-32c13-20 28-46 61-46s47 25 60 46c12 20 19 32 33 32s22-12 34-32c12-20 28-46 60-46s48 25 60 46c12 20 20 32 34 32s21-12 33-32c13-20 28-46 61-46 32 0 47 25 60 46 12 20 19 32 33 32s22-12 34-32c12-20 28-46 60-46s48 25 60 46c12 20 20 32 34 32v31c-32 0-48-26-61-47z m-127 516v-148l-265 66v82h265z m-234 219h62v-32h-62v32z m-156 0h62v-32h-62v32z m-47-79c0 9 7 16 15 16h282c8 0 15-7 15-16v-109h-312v109z m-125-140h265v-82l-265-66v148z m281-110l354-89-16-41-334 83c-3 1-5 1-8 0l-332-83-17 42 353 88z m68-366c-15-10-27-24-35-40l0 0c-11-19-19-31-33-31s-22 12-33 31c-8 16-20 30-35 40l-9 49 77 77 77-77-9-49z m219 6c-2 1-4 1-6 1-32 0-48-26-60-47l0 0c-12-19-20-31-33-31s-22 12-34 31c-11 20-26 43-53 46l8 45c1 5-1 10-4 14l-94 94c-6 6-16 6-22 0l-94-94c-3-4-5-9-4-14l8-45c-27-3-41-26-53-46-12-19-19-31-33-31s-22 12-34 31c-12 21-28 47-59 47l-74 192 354 89 355-89-68-193z m-318 610h-94c-9 0-16-7-16-15v-63c0-8 7-15 16-15h94c8 0 15 7 15 15v63c0 8-7 15-15 15z m-16-62h-62v31h62v-31z m172 62h-94c-8 0-15-7-15-15v-63c0-8 7-15 15-15h94c9 0 16 7 16 15v63c0 8-7 15-16 15z m-16-62h-62v31h62v-31z" horiz-adv-x="1000" />

<glyph glyph-name="ev-plug" unicode="&#xe813;" d="M671 604v121c0 17-13 33-33 33s-30-16-30-33v-108h-216v108c0 17-13 33-34 33s-29-16-29-33v-121c-41-16-71-58-71-104v-117c0-62 50-112 117-112h92v-296c0-17 12-33 33-33s33 12 33 33v296h92c63 0 117 50 117 112v117c0 46-29 88-71 104z m4-221c0-29-25-50-50-50h-250c-29 0-50 25-50 50v117c0 29 25 50 50 50h250c29 0 50-25 50-50v-117z" horiz-adv-x="1000" />

<glyph glyph-name="multi-window" unicode="&#xe814;" d="M833 504h-91v96c0 63-50 117-117 117h-458c-63-4-117-54-117-117v-333c0-63 50-117 117-117h91v-92c0-62 50-116 117-116h458c63 0 117 50 117 116v334c0 62-54 112-117 112z m-575-112v-175h-91c-29 0-50 25-50 50v333c0 29 25 50 50 50h458c29 0 50-25 50-50v-92h-300c-62-4-117-54-117-116z m625-334c0-29-25-50-50-50h-458c-29 0-50 25-50 50v334c0 29 25 50 50 50h458c30 0 50-25 50-50v-334z m-425 321h-41c-17 0-34-12-34-33s13-33 34-33h41c17 0 34 12 34 33s-17 33-34 33z m-208 209h-42c-16 0-33-13-33-30s17-33 33-33h42c17 0 33 13 33 33s-16 30-33 30z" horiz-adv-x="1000" />

<glyph glyph-name="on-rounded" unicode="&#xe815;" d="M708 754h-416c-154 0-284-125-284-283v-250c0-154 125-284 284-284h416c155 0 284 126 284 284v254c0 154-129 279-284 279z m217-529c0-121-100-217-217-217h-416c-121 0-217 100-217 217v250c0 121 100 217 217 217h416c121 0 217-100 217-217v-250z m-550 279c-87 0-158-71-158-158 0-88 71-158 158-158s158 70 158 158c0 92-70 158-158 158z m0-250c-50 0-92 42-92 92 0 50 42 92 92 92s92-42 92-92c0-46-42-92-92-92z m375 250c-17 0-33-12-33-33v-146l-109 163c-8 12-20 16-33 12-12-4-21-17-21-29v-250c0-17 13-33 34-33s33 12 33 33v146l108-163c4-8 17-12 25-12 4 0 4 0 9 0 12 4 20 16 20 29v254c0 17-16 29-33 29z" horiz-adv-x="1000" />

<glyph glyph-name="off-rounded" unicode="&#xe816;" d="M708 754h-416c-154 0-284-125-284-283v-250c0-154 125-284 284-284h416c155 0 284 126 284 284v254c0 154-129 279-284 279z m217-529c0-121-100-217-217-217h-416c-121 0-217 100-217 217v250c0 121 100 217 217 217h416c121 0 217-100 217-217v-250z m-633 279c-88 0-159-71-159-158 0-88 71-158 159-158s158 70 158 158c0 92-71 158-158 158z m0-250c-50 0-92 42-92 92 0 50 42 92 92 92s91-42 91-92c0-46-41-92-91-92z m333 250h-125c-17 0-33-12-33-33v-250c0-17 12-33 33-33s33 12 33 33v92h75c17 0 34 12 34 33s-13 33-34 33h-75v63h92c17 0 33 12 33 33s-16 29-33 29z m208 0h-125c-16 0-33-12-33-33v-250c0-17 13-33 33-33s34 12 34 33v92h75c16 0 33 12 33 33s-12 33-33 33h-75v63h91c17 0 34 12 34 33s-17 29-34 29z" horiz-adv-x="1000" />

<glyph glyph-name="settings-profiles" unicode="&#xe817;" d="M500-92c-12 0-25 4-37 13l-80 71-104-9c-29-4-54 17-58 42l-25 104-92 54c-21 13-33 46-21 71l42 96-42 96c-12 25 0 58 25 71l92 54 25 104c8 29 33 46 58 42l105-9 79 71c21 17 54 17 75 0l79-71 104 9c29 4 54-17 58-42l25-104 88-54c21-13 33-46 21-71l-42-96 42-96c12-25 0-54-21-71l-92-54-25-104c-8-29-33-46-58-42l-104 9-79-71c-13-4-25-13-38-13z m-112 146c12 0 25-4 37-12l75-67 75 67c13 8 25 16 42 12l100-8 25 100c4 17 12 29 25 37l87 55-41 95c-5 13-5 30 0 46l41 96-83 42c-13 8-21 21-25 37l-25 100-100-8c-17 0-29 4-42 12l-79 67-79-67c-8-8-25-16-42-12l-100 8-21-100c-4-16-16-29-29-37l-87-50 41-96c5-13 5-29 0-46l-41-96 87-46c13-8 21-20 25-37l25-100 100 8c4 0 4 0 9 0z m70 138c-8 0-16 4-20 8l-84 83c-12 13-12 34 0 46s34 13 46 0l63-62 187 187c13 13 33 13 46 0s12-33 0-46l-208-208c-13-4-21-8-30-8z" horiz-adv-x="1000" />

<glyph glyph-name="settings" unicode="&#xe818;" d="M500 192c-87 0-158 71-158 158 0 88 71 158 158 158 88 0 158-70 158-158 0-87-70-158-158-158z m0 250c-50 0-92-42-92-92 0-50 42-92 92-92 50 0 92 42 92 92 0 50-42 92-92 92z m42-542h-84c-12 0-25 8-29 25l-21 83-75 34-58-50c-12-9-29-9-42 4l-83 83c-12 13-12 29 0 42l50 54-33 79-84 25c-12 4-25 17-25 29v84c0 12 9 29 25 29l84 21 33 79-58 58c-9 13-9 29 4 42l83 83c13 13 29 13 42 0l58-50 79 34 21 83c4 12 17 25 29 25h84c12 0 25-8 29-25l21-83 79-34 58 50c13 13 29 9 42 0l83-83c13-13 13-29 0-42l-50-58 34-79 83-21c12-4 25-17 25-29v-84c0-12-8-25-25-29l-83-21-34-79 50-58c13-13 9-29 0-42l-83-83c-13-13-29-13-42 0-12 8-37 33-58 50l-79-33-21-84c-4-17-17-29-29-29z m-59 62h34l21 76c4 8 8 16 16 20l113 46c8 4 21 4 29-4 12-8 37-29 54-46l42 42-42 50c-8 8-8 21-4 33l46 113c4 8 12 16 21 16l75 21v34l-75 20c-9 5-17 9-21 17l-50 117c-4 12-4 25 4 33l46 50-42 42-50-42c-8-8-21-8-33-4l-113 46c-8 4-16 12-16 21l-21 75h-34l-20-75c-5-13-9-21-21-25l-109-46c-12-4-25-4-33 4l-50 46-42-42 42-54c8-8 8-21 4-33l-46-113c0-8-8-12-20-17l-75-16v-34l75-20c12-5 20-13 25-21l45-109c5-12 5-25-4-33l-46-50 42-42 54 42c9 8 21 8 34 4l108-46c8-4 17-12 17-20l20-76z" horiz-adv-x="1000" />

<glyph glyph-name="system-restart" unicode="&#xe819;" d="M500 567c-17 0-33 12-33 33v167c0 16 12 33 33 33s33-12 33-33v-167c0-17-16-33-33-33z m0-667c-17 0-33 12-33 33v167c0 17 12 33 33 33s33-12 33-33v-167c0-16-16-33-33-33z m417 417h-167c-17 0-33 12-33 33s12 33 33 33h167c16 0 33-12 33-33s-17-33-33-33z m-667 0h-167c-16 0-33 12-33 33s13 33 33 33h167c17 0 33-12 33-33s-16-33-33-33z m75 179c-8 0-17 4-21 8l-121 117c-12 12-12 33 0 46s34 12 46 0l117-117c12-12 12-33 0-46-8-4-17-8-21-8z m471-471c-8 0-17 4-21 8l-117 117c-12 13-12 33 0 46s34 12 46 0l117-117c12-12 12-33 0-46-8-4-17-8-25-8z m-121 471c-8 0-17 4-21 8-12 13-12 34 0 46l117 117c12 12 33 12 46 0s12-34 0-46l-117-117c-8-4-17-8-25-8z m-471-471c-8 0-16 4-21 8-12 13-12 34 0 46l117 117c13 12 33 12 46 0s12-33 0-46l-117-117c-8-4-16-8-25-8z" horiz-adv-x="1000" />

<glyph glyph-name="calculator" unicode="&#xe81a;" d="M875 838h-750c-62 0-117-50-117-113v-750c0-63 50-117 117-117h750c63 0 117 50 117 117v750c0 63-54 113-117 113z m50-863c0-29-25-50-50-50h-750c-29 0-50 25-50 50v750c0 29 25 50 50 50h750c29 0 50-25 50-50v-750z m-133 613h-167c-17 0-33-13-33-34s12-33 33-33h167c16 0 33 12 33 33s-17 34-33 34z m0-355h-167c-17 0-33-12-33-33s12-33 33-33h167c16 0 33 12 33 33s-17 33-33 33z m0-125h-167c-17 0-33-12-33-33s12-33 33-33h167c16 0 33 12 33 33s-17 33-33 33z m-417 480h-50v54c0 16-12 33-33 33s-34-17-34-33v-50h-50c-16-4-33-17-33-34s17-33 33-33h50v-50c0-17 13-33 34-33s33 16 33 33v50h50c17 0 33 13 33 33s-16 30-33 30z m-4-367c-13 12-33 12-46 0l-33-33-38 37c-12 13-33 13-46 0s-12-33 0-46l38-37-38-38c-12-12-12-33 0-46s34-12 46 0l38 38 37-38c4-4 13-8 21-8s17 4 21 8c12 13 12 34 0 46l-33 38 37 37c8 13 8 34-4 42z" horiz-adv-x="1000" />

<glyph glyph-name="cpu" unicode="&#xe81b;" d="M642 546h-284c-29 0-58-25-58-54v-284c0-29 25-58 58-58h284c29 0 54 25 54 58v284c4 29-25 54-54 54z m-9-333h-266v270h271v-270z m284 104c16 0 33 12 33 33s-12 33-33 33h-50v142h50c16 0 33 13 33 33s-17 30-33 30h-50v70c0 30-25 55-54 55h-71v54c0 16-13 33-34 33s-33-17-33-33v-50h-146v50c0 16-12 33-33 33s-29-17-29-33v-50h-142v50c0 16-12 33-33 33s-34-17-34-33v-50h-66c-29 0-59-25-59-54v-71h-50c-16-4-33-17-33-34s17-33 33-33h50v-146h-50c-16 0-33-12-33-33s13-33 33-33h50v-146h-50c-16 0-33-13-33-34s13-33 33-33h50v-67c0-29 25-58 59-58h66v-42c0-16 13-33 34-33s33 12 33 33v50h146v-50c0-16 12-33 33-33s34 12 34 33v50h145v-50c0-16 13-33 34-33s33 12 33 33v50h71c29 0 54 25 54 59v66h42c16 0 33 13 33 34s-12 33-33 33h-50v146h50z m-117-271h-600v604h604v-604z" horiz-adv-x="1000" />

<glyph glyph-name="calendar" unicode="&#xe81c;" d="M438 650h158v-50c0-17 12-33 33-33s34 12 34 33v167c0 16-13 33-34 33s-37-17-37-33v-50h-159c-16 0-33-13-33-34s21-33 38-33z m354 63h-21c-17 0-33-13-33-34s12-33 33-33h21c29 0 50-25 50-50v-133h-684v137c0 29 25 50 50 50h50v-50c0-17 13-33 34-33s33 16 33 33v167c0 16-12 33-33 33s-34-17-34-33v-50h-50c-62-4-116-54-116-117v-167-375c0-62 50-116 116-116h584c62 0 116 50 116 116v375 167c0 63-54 113-116 113z m50-655c0-29-25-50-50-50h-584c-29 0-50 25-50 50v342h688v-342z" horiz-adv-x="1000" />

<glyph glyph-name="hd" unicode="&#xe81d;" d="M417 108c-17 0-34 13-34 34v175h-225v-175c0-17-12-34-33-34s-33 17-33 34v416c0 17 12 34 33 34s33-17 33-34v-175h230v175c0 17 12 34 33 34s33-13 33-34v-416c-4-17-21-34-37-34z m125 0c-17 0-34 13-34 34v416c0 17 13 34 34 34 162 0 366 0 366-242s-204-242-366-242z m33 417v-354c167 0 271 17 271 175s-104 179-271 179z" horiz-adv-x="1000" />

<glyph glyph-name="hdr" unicode="&#xe81e;" d="M250 171c-17 0-33 12-33 33v117h-125v-117c0-16-13-33-34-33s-33 12-33 33v292c0 17 13 33 33 33s34-12 34-33v-117h125v117c0 17 12 33 33 33s33-12 33-33v-292c0-16-16-33-33-33z m688 0c-9 0-17 4-25 12l-80 105h-70v-84c0-16-13-33-34-33s-33 12-33 33v292c0 17 12 33 33 33h121c79 0 121-41 121-116 0-59-21-96-63-109l59-75c12-12 8-33-4-46-13-8-17-12-25-12z m-180 179h88c0 0 0 0 0 0 37 0 58 4 58 58 0 55-21 55-58 55h-88v-113z m-362-179c-17 0-33 12-33 33v292c0 17 12 33 33 33 100 0 242 0 242-175s-142-183-242-183z m29 292v-230c96 0 146 17 146 113 4 104-46 117-146 117z" horiz-adv-x="1000" />

<glyph glyph-name="panorama-enlarge" unicode="&#xe81f;" d="M908 588c-4 25-20 41-45 45-55 9-234 38-363 38-129 0-308-29-362-38-25-4-42-25-46-45-4-46-17-159-17-238 0-79 13-192 17-237 4-25 21-42 46-46 66-13 237-38 362-38s296 29 363 38c25 4 41 25 45 46 5 45 21 154 21 237-4 79-16 192-21 238z m-62-463c-58-8-229-37-346-37-121 0-292 29-346 37-4 46-16 150-16 225 0 75 12 175 16 225 54 8 225 33 346 33s292-29 346-37c4-46 17-150 17-225 4-71-9-175-17-221z" horiz-adv-x="1000" />

<glyph glyph-name="panorama-reduce" unicode="&#xe820;" d="M850 79c-4 0-12 0-17 4-62 21-220 71-333 71s-267-50-329-71c-17-4-38-4-50 9-17 12-25 29-25 46v425c0 16 8 33 25 45 12 13 29 17 46 9 62-21 221-71 333-71 113 0 267 50 333 71 17 4 38 4 50-9 17-12 25-29 25-45v-430c0-16-8-33-25-45-12-5-20-9-33-9z m-692 475v-412c71 25 230 71 342 71 113 0 263-42 342-71v412c-84-29-234-71-342-71s-262 46-342 71z" horiz-adv-x="1000" />

<glyph glyph-name="video-camera" unicode="&#xe821;" d="M875 554c-21 9-42 9-58-8l-159-133v120c0 30-25 55-54 55h-454c-29 0-58-25-58-55v-366c0-29 25-59 58-59h450c29 0 54 25 54 59v116l159-133c16-12 41-17 58-8 21 8 33 29 33 50v312c4 21-8 42-29 50z m-283-383h-434v354h438v-354z m250 37l-167 142 171 142v-284z" horiz-adv-x="1000" />

<glyph glyph-name="fx" unicode="&#xe822;" d="M417 588h-292c-17 0-33-13-33-30v-416c0-17 12-34 33-34s33 13 33 34v175h175c17 0 34 12 34 33s-17 29-34 29h-175v146h259c16 0 33 13 33 33s-17 30-33 30z m333-238l150 188c13 12 8 33-4 45-13 13-33 9-46-4l-142-179-141 179c-13 13-29 17-46 4-13-12-17-29-4-45l150-188-150-187c-13-13-9-34 4-46 12-13 33-9 46 4l141 179 142-179c4-8 17-13 25-13 8 0 13 5 21 9 12 12 17 29 4 46l-150 187z" horiz-adv-x="1000" />

<glyph glyph-name="expand" unicode="&#xe823;" d="M242 650h91c17 0 34 13 34 33s-17 30-34 30h-166c-4 0-9 0-13-5-4 0-8-4-8-8s-8 0-8-4c0-4-5-8-5-13v-166c0-17 13-34 34-34s33 17 33 34v91l154-154c4-8 13-12 21-12s17 4 21 8c12 13 12 33 0 46l-154 154z m621 46c0 4-5 8-9 8s-8 4-8 9c-4 0-8 4-13 4h-166c-17 0-34-13-34-34s13-33 34-33h91l-154-154c-12-13-12-33 0-46 4-4 13-8 21-8s17 4 21 8l154 154v-87c0-17 13-34 33-34s34 13 34 34v166c0 5-4 9-4 13z m-509-450l-154-154v91c0 17-12 34-33 34s-34-17-34-34v-166c0-4 0-9 5-13 0-4 4-8 8-8s8-4 8-9c4 0 9-4 13-4h166c17 0 34 13 34 34s-17 29-34 29h-91l154 154c12 13 12 33 0 46s-29 12-42 0z m479-33c-16 0-33-13-33-34v-91l-154 154c-13 12-33 12-46 0s-12-34 0-46l154-154h-87c-17 0-34-13-34-34s13-33 34-33h166c5 0 9 0 13 4 4 0 8 4 8 8s4 9 9 9c0 4 4 8 4 12v167c0 25-17 38-34 38z" horiz-adv-x="1000" />

<glyph glyph-name="enlarge" unicode="&#xe824;" d="M625 442c-8 0-17 4-21 8-12 13-12 33 0 46l154 154h-91c-17 0-34 13-34 33s13 34 34 34h166c5 0 9 0 13-4 4 0 8-5 8-9s4-8 9-8c0-4 4-8 4-13v-166c0-17-13-34-34-34s-33 17-33 34v91l-154-154c-4-8-13-12-21-12z m-292-459h-166c-4 0-9 0-13 4-4 0-8 5-8 9s-4 8-8 8c0 4-5 9-5 13v166c0 17 13 34 34 34s33-13 33-34v-91l154 154c13 12 34 12 46 0s13-33 0-46l-154-154h87c17 0 34-13 34-33s-17-30-34-30z" horiz-adv-x="1000" />

<glyph glyph-name="camera-2" unicode="&#xe825;" d="M833-58h-666c-63 0-117 50-117 116v417c0 63 50 117 117 117h21c16 0 33 8 41 21l92 125c12 8 29 16 46 16h266c17 0 34-8 46-21l92-125c8-12 25-20 42-20h20c63 0 117-50 117-117v-417c0-58-54-112-117-112z m-666 583c-29 0-50-21-50-50v-417c0-29 25-50 50-50h666c30 0 50 25 50 50v417c0 29-25 50-50 50h-20c-38 0-71 17-92 46l-92 121h-258l-92-121c-21-25-54-46-91-46h-21z m333-417c-108 0-200 88-200 200s92 196 200 196 200-87 200-200-92-196-200-196z m0 334c-75 0-133-63-133-134s62-133 133-133 133 63 133 133-58 134-133 134z" horiz-adv-x="1000" />

<glyph glyph-name="activity" unicode="&#xe826;" d="M625-58c-12 0-25 8-29 20l-221 663-96-287c-4-13-16-21-29-21h-125c-17 0-33 12-33 33s12 33 33 33h104l117 355c4 8 17 16 29 16s25-8 29-21l221-658 96 288c4 12 17 20 29 20h125c17 0 33-12 33-33s-12-33-33-33h-104l-117-355c-4-8-16-20-29-20z" horiz-adv-x="1000" />

<glyph glyph-name="bookmark-empty" unicode="&#xe827;" d="M792-58c-4 0-13 0-17 4l-246 158c-16 13-37 13-58 0l-246-158c-8-4-21-9-33 0-9 4-17 16-17 29v667c0 62 50 116 117 116h416c63 0 117-50 117-116v-667c0-13-4-21-17-29-8 0-12-4-16-4z m-292 237c21 0 42-4 63-16l200-130v609c0 29-25 54-50 54h-421c-29-4-50-25-50-54v-609l200 130c16 8 37 16 58 16z" horiz-adv-x="1000" />

<glyph glyph-name="nav-arrow-up" unicode="&#xe828;" d="M750 192c-8 0-17 4-21 8l-229 229-229-229c-13-12-33-12-46 0s-12 33 0 46l250 250c13 12 33 12 46 0l250-250c12-13 12-33 0-46-4-4-13-8-21-8z" horiz-adv-x="1000" />

<glyph glyph-name="nav-arrow-right" unicode="&#xe829;" d="M375 67c-8 0-17 4-21 8-12 13-12 33 0 46l229 229-229 229c-12 13-12 34 0 46s34 13 46 0l250-250c13-12 13-33 0-46l-250-250c-8-8-17-12-25-12z" horiz-adv-x="1000" />

<glyph glyph-name="nav-arrow-left" unicode="&#xe82a;" d="M625 67c-8 0-17 4-21 8l-250 250c-12 13-12 33 0 46l250 250c13 12 34 12 46 0s13-33 0-46l-229-225 229-229c13-13 13-33 0-46-8-4-17-8-25-8z" horiz-adv-x="1000" />

<glyph glyph-name="music-1" unicode="&#xe82b;" d="M375 150c-17 0-33 13-33 33v459c0 16 12 29 25 29l458 83c8 0 17 0 25-8 8-4 13-17 13-25v-458c0-17-13-34-34-34s-33 13-33 34v425l-388-71v-434c0-16-16-33-33-33z m375-125h-42c-62 0-116 50-116 117v41c0 63 50 117 116 117h125c17 0 34-12 34-33v-125c0-63-54-117-117-117z m-42 208c-29 0-50-25-50-50v-41c0-29 25-50 50-50h42c29 0 50 25 50 50v91h-92z m-416-291h-42c-62 0-117 50-117 116v42c0 63 50 117 117 117h125c17 0 33-13 33-34v-125c0-62-54-116-116-116z m-42 208c-29 0-50-25-50-50v-42c0-29 25-50 50-50h42c29 0 50 25 50 50v92h-92z" horiz-adv-x="1000" />

<glyph glyph-name="iris-scan" unicode="&#xe82c;" d="M125 567c-17 0-33 16-33 33v125c0 17 12 33 33 33h125c17 0 33-12 33-33s-16-33-33-33h-92v-92c0-17-16-33-33-33z m375-334c-62 0-117 50-117 117s50 117 117 117 117-50 117-117-54-117-117-117z m0 167c-29 0-50-25-50-50s25-50 50-50 50 25 50 50-21 50-50 50z m0-333c-171 0-321 137-400 262-8 13-8 25 4 38 88 112 209 262 396 262 188 0 308-150 400-262 8-9 8-25 4-38-83-125-233-262-404-262z m-337 283c70-104 195-217 337-217s267 113 338 217c-100 121-196 221-338 221-137-4-237-100-337-221z m712 217c-17 0-33 12-33 33v92h-92c-17 0-33 12-33 33s12 33 33 33h125c17 0 33-12 33-33v-125c0-17-16-33-33-33z m-625-625h-125c-17 0-33 12-33 33v125c0 17 12 33 33 33s33-12 33-33v-92h92c17 0 33-12 33-33s-16-33-33-33z m625 0h-125c-17 0-33 12-33 33s12 33 33 33h92v92c0 17 12 33 33 33s33-12 33-33v-125c0-17-16-33-33-33z" horiz-adv-x="1000" />

<glyph glyph-name="voice" unicode="&#xe82d;" d="M500-17c-17 0-33 13-33 34v666c0 17 12 34 33 34s33-13 33-34v-666c0-17-16-34-33-34z m-167 209c-16 0-33 12-33 33v250c0 17 13 33 33 33s34-16 34-33v-250c0-17-17-33-34-33z m500 41c-16 0-33 13-33 34v166c0 17 13 34 33 34s34-13 34-34v-166c0-17-17-34-34-34z m-666 0c-17 0-34 13-34 34v166c0 17 13 34 34 34s33-17 33-34v-166c0-17-17-34-33-34z m500-125c-17 0-34 13-34 34v416c0 17 13 34 34 34s33-13 33-34v-416c0-17-17-34-33-34z" horiz-adv-x="1000" />

<glyph glyph-name="home" unicode="&#xe82e;" d="M875 421c-4 0-12 0-17 4l-358 221-358-221c-17-8-34-4-42 8-8 17-4 34 8 42l375 229c9 4 21 4 34 0l375-229c16-8 21-29 8-42-4-4-12-12-25-12z m-108-438h-534c-29 0-58 25-58 59v266c0 17 13 34 33 34s34-13 34-34v-258h521v258c0 17 12 34 33 34s33-13 33-34v-266c-4-29-33-59-62-59z" horiz-adv-x="1000" />

<glyph glyph-name="home-simple-door" unicode="&#xe82f;" d="M708-58h-416c-109 0-200 87-200 200v262c0 71 37 134 96 171l208 125c62 38 142 38 204 0l208-125c59-37 96-100 96-171v-262c4-109-87-200-196-200z m-50 62h50c75 0 134 63 134 134v262c0 46-25 92-67 117l-208 125c-42 25-96 25-142 0l-208-125c-42-25-67-67-67-117v-258c0-75 63-134 133-134h50v134c0 87 71 158 159 158 87 0 158-71 158-158v-138z m-250 0h188v138c0 50-42 91-92 91-50 0-91-41-91-91v-138z" horiz-adv-x="1000" />

<glyph glyph-name="box" unicode="&#xe830;" d="M583 317h-166c-17 0-34 12-34 33s13 33 34 33h166c17 0 34-12 34-33s-17-33-34-33z m292 375h-750c-17 0-33 16-33 33s16 29 33 29h750c17 0 33-12 33-33s-16-29-33-29z m-25-750h-700c-29 0-58 25-58 58v558c0 17 12 34 33 34s33-17 33-34v-550h688v550c0 17 12 34 33 34s34-13 34-34v-558c-5-29-34-58-63-58z" horiz-adv-x="1000" />

<glyph glyph-name="vr-symbol" unicode="&#xe831;" d="M667 754h-334c-154 0-283-125-283-283v-250c0-154 125-284 283-284h334c154 0 283 126 283 284v254c0 154-129 279-283 279z m216-529c0-121-100-217-216-217h-334c-120 0-216 100-216 217v250c0 121 100 217 216 217h334c121 0 216-100 216-217v-250z m-100 183c0 80-41 117-120 117h-121c-17 0-34-12-34-33v-292c0-17 13-33 34-33s33 12 33 33v83h71l79-104c4-8 17-12 25-12 8 0 13 4 21 8 12 13 17 29 4 46l-58 75c41 17 66 54 66 112z m-120-58c0 4 0 4 0 0h-88v113h88c37 0 58-5 58-55-4-54-25-54-58-58z m-192 175c-17 8-33 0-42-17l-96-225-95 225c-9 17-25 25-42 17-17-8-25-25-17-42l125-291c4-13 17-21 29-21s25 8 30 21l125 291c8 17 0 34-17 42z" horiz-adv-x="1000" />

<glyph glyph-name="printing-page" unicode="&#xe832;" d="M708 588h-8v112c0 29-25 54-54 54h-288c-29 0-58-25-58-54v-112h-8c-109 0-200-88-200-200v-267c0-29 25-58 58-58h83l-8-63v0c-4-17 4-33 13-46 12-12 25-21 41-21h442c17 0 33 9 42 21s16 29 12 46l-8 63h83c29 0 54 25 54 58v271c4 108-87 196-196 196z m-341 104h271v-104h-271v104z m-79-688l33 229h362l34-229h-429z m554 125h-84l-16 117c-4 29-29 50-54 50h-375c-30 0-50-21-55-50l-16-117h-84v263c0 75 63 133 134 133h416c75 0 134-62 134-133v-263z m-159 325l0 0c-12-12-8-33 5-46 4-4 12-8 20-8 9 0 17 4 25 13 13 12 9 33-4 45-12 9-33 9-46-4z" horiz-adv-x="1000" />

<glyph glyph-name="modern-tv" unicode="&#xe833;" d="M708-58h-416c-17 0-34 12-34 33s13 33 34 33h416c17 0 34-12 34-33s-17-33-34-33z m184 166h-784c-29 0-58 25-58 59v533c0 29 25 54 58 54h784c29 0 54-25 54-54v-533c4-29-25-59-54-59z m-775 63h771v521h-771v-521z" horiz-adv-x="1000" />

<glyph glyph-name="modern-tv-4k" unicode="&#xe834;" d="M708-58h-416c-17 0-34 12-34 33s13 33 34 33h416c17 0 34-12 34-33s-17-33-34-33z m0 333c-12 0-20 4-25 17l-66 112-21-25v-71c0-16-13-33-33-33s-34 13-34 33v84c0 0 0 0 0 0v166c0 17 13 34 34 34s33-13 33-34v-83l0 4c0 0 0 0 0 0l87 100c13 13 30 13 46 4 13-12 13-29 4-45l-75-84 75-129c9-17 5-33-12-42 0-4-8-8-13-8z m-291 0c-17 0-34 13-34 33v34h-112c-13 0-21 8-29 16-4 9-4 21 0 34l125 187c8 13 29 17 41 9 13-9 17-30 9-42l-92-138h92c16 0 33-12 33-33v-67c0-16-17-33-33-33z m475-167h-784c-29 0-58 25-58 59v533c0 29 25 54 58 54h784c29 0 54-25 54-54v-533c4-29-25-59-54-59z m-775 63h771v521h-771v-521z" horiz-adv-x="1000" />

<glyph glyph-name="hard-drive" unicode="&#xe835;" d="M417 108c-9 0-17 5-21 9-13 12-13 29-4 46l0 0c12 12 33 12 46 0 12-13 12-34 4-46-9-4-17-9-25-9z m-167 0c-8 0-17 5-21 9-12 12-12 29-4 46l0 0c13 12 33 12 46 0 12-13 12-34 4-46-8-4-17-9-25-9z m642-166h-784c-29 0-58 25-58 58v308h33l-29 9 121 400c8 25 29 41 54 41h546c25 0 46-16 54-41l121-400-33-9h33v-308c0-29-29-58-58-58z m-775 62h771v271h-771v-271z m8 334h750l-108 354h-534l-108-354z" horiz-adv-x="1000" />

<glyph glyph-name="computer" unicode="&#xe836;" d="M708-58h-625c-16 0-33 12-33 33s13 33 33 33h625c17 0 34-12 34-33s-17-33-34-33z m209 0h-42c-17 0-33 12-33 33s12 33 33 33h42c16 0 33-12 33-33s-17-33-33-33z m-25 166h-784c-29 0-58 25-58 59v533c0 29 25 54 58 54h784c29 0 54-25 54-54v-533c4-29-25-59-54-59z m-775 63h771v521h-771v-521z" horiz-adv-x="1000" />

<glyph glyph-name="chromecast" unicode="&#xe837;" d="M83-17c-8 0-16 4-20 9-13 12-13 29-5 46l0 0c13 12 34 12 46 0 13-13 13-34 4-46-8-5-16-9-25-9z m750 0h-208c-17 0-33 13-33 34s12 33 33 33h208c30 0 50 25 50 50v500c0 29-25 50-50 50h-666c-29 0-50-21-50-50v-42c0-16-13-33-34-33s-33 17-33 33v42c0 63 50 117 117 117h666c63 0 117-50 117-117v-500c0-62-54-117-117-117z m-583 0c-12 0-25 9-29 25-17 71-71 125-146 146-17 4-25 21-21 38 4 16 21 25 38 21 96-25 166-96 187-188 4-17-4-33-21-38-4 0-4-4-8-4z m167 0c-17 0-29 13-29 30-21 154-155 287-305 304-16 4-29 16-29 33 4 17 17 29 34 29 179-21 337-179 362-362 0-13-12-30-33-34 4 4 0 0 0 0z" horiz-adv-x="1000" />

<glyph glyph-name="ar-symbol" unicode="&#xe838;" d="M667-58h-334c-154 0-283 125-283 283v250c0 154 125 283 283 283h334c154 0 283-125 283-283v-250c0-154-129-283-283-283z m-334 750c-120 0-216-96-216-217v-250c0-121 100-217 216-217h334c121 0 216 100 216 217v250c0 121-100 217-216 217h-334z m417-521c-8 0-17 4-25 12l-79 105h-71v-84c0-16-12-33-33-33s-34 12-34 33v292c0 17 13 33 34 33h121c79 0 120-41 120-116 0-59-20-96-62-109l58-75c13-12 9-33-4-46-12-8-17-12-25-12z m-175 179h88c0 0 0 0 0 0 37 0 58 4 58 58 0 55-21 55-58 55h-88v-113z m-117-179c-12 0-25 8-29 21l-37 83h-117l-37-83c-9-17-25-25-42-17-17 8-25 25-17 42l46 104c0 0 0 0 0 0l79 187c9 25 46 25 59 0l79-187c0 0 0 0 0 0l46-104c8-17 0-34-17-42-4 0-8-4-13-4z m-158 167h67l-34 79-33-79z" horiz-adv-x="1000" />

<glyph glyph-name="apple-imac-2021" unicode="&#xe839;" d="M892 796h-784c-29 0-58-25-58-54v-617c0-29 25-58 58-58h296v-105h-29c-17 0-33-12-33-33s12-33 33-33h250c17 0 33 12 33 33s-12 33-33 33h-33v105h300c29 0 54 25 54 58v617c4 29-25 54-54 54z m-359-834h-62v105h62v-105z m350 167h-325-441v42h771v-42z m0 104h-766v500h771v-500z" horiz-adv-x="1000" />

<glyph glyph-name="4k-display" unicode="&#xe83a;" d="M563 192c16 0 33 12 33 33v71l21 25 66-113c5-8 17-16 25-16 5 0 13 0 17 4 17 8 21 29 13 42l-75 129 75 83c12 13 8 33-5 46-12 12-33 8-45-4l-88-100c0 0 0 0 0 0l0-4v87c0 17-12 33-33 33s-34-16-34-33v-167c0 0 0 0 0 0v-83c0-17 13-33 30-33z m-292 62h117v-29c0-17 12-33 33-33s33 12 33 33v63c0 16-12 33-33 33h-92l92 137c8 13 4 34-8 42-13 8-34 4-42-8l-125-188c-8-8-8-21 0-33 4-8 12-17 25-17z m621 417h-784c-29 0-58-25-58-54v-534c0-29 25-58 58-58h784c29 0 54 25 54 58v534c4 29-25 54-54 54z m-9-583h-766v520h771v-520z" horiz-adv-x="1000" />

<glyph glyph-name="electronics-transister" unicode="&#xe83b;" d="M792 213h-50v487c0 29-25 54-54 54h-371c-29 0-59-25-59-54v-487h-50c-16 0-33-13-33-34s13-33 33-33h134v-213c0-16 12-33 33-33s33 12 33 33v217h63v-217c0-16 12-33 33-33s34 12 34 33v217h62v-217c0-16 13-33 33-33s34 12 34 33v217h125c16 0 33 13 33 33s-17 30-33 30z m-117 0h-50-300v479h354v-479z" horiz-adv-x="1000" />

<glyph glyph-name="electronics-chip" unicode="&#xe83c;" d="M813 317c16 0 33 12 33 33s-13 33-33 33h-75v167h75c16 0 33 13 33 33s-13 34-33 34h-75v41c0 30-25 55-55 55h-70v75c0 16-13 33-34 33s-33-13-33-33v-75h-104v75c0 16-13 33-34 33s-25-17-25-33v-75h-66c-29 0-59-25-59-55v-50h-70c-17 0-34-12-34-33s13-33 34-33h75v-167h-75c-17 0-34-12-34-33s13-34 34-34h75v-166h-75c-17 0-34-13-34-34s13-33 34-33h75v-46c0-29 25-58 58-58h67v-75c0-17 12-34 33-34s33 13 33 34v75h104v-75c0-17 13-34 34-34s33 13 33 34v75h71c29 0 54 25 54 58v46h75c17 0 33 13 33 33s-12 34-33 34h-75v166h63z m-138-271h-350v604h354v-604z" horiz-adv-x="1000" />

<glyph glyph-name="ruler-combine" unicode="&#xe83d;" d="M892 796h-784c-29 0-58-25-58-54v-784c0-29 25-58 58-58h284c29 0 58 25 58 58v442h446c29 0 54 25 54 58v284c0 29-29 54-58 54z m-9-333h-187v95c0 17-13 34-33 34s-30-17-30-34v-91h-187v91c0 17-13 34-33 34s-30-17-30-34v-91h-91c-17 0-34-13-34-34s13-33 34-33h91v-187h-91c-17 0-34-13-34-34s13-33 34-33h91v-188h-266v775h771v-270z" horiz-adv-x="1000" />

<glyph glyph-name="copy" unicode="&#xe83e;" d="M808 504h-154v154c0 30-25 55-54 55h-408c-29 0-59-25-59-55v-408c0-29 25-58 59-58h150v-150c0-29 25-59 58-59h408c30 0 55 25 55 59v408c4 29-25 54-55 54z m-608-250v396h396v-146h-196c-29 0-58-25-58-54v-196h-142z m600-208h-392v396h396v-396z" horiz-adv-x="1000" />

<glyph glyph-name="data-transfer-both" unicode="&#xe83f;" d="M854 579l-125 125c-4 4-8 4-8 9-8 4-17 4-25 0-4 0-8-5-8-9l-125-125c-13-12-13-33 0-46s33-12 45 0l71 71v-587c0-17 13-34 34-34s33 13 33 34v591l71-70c12-13 33-13 46 0s4 29-9 41z m-458-416l-71-71v591c0 17-12 34-33 34s-34-17-34-34v-591l-70 71c-13 12-34 12-46 0s-13-34 0-46l125-125c4-5 8-5 8-9 4 0 8-4 13-4s8 0 12 4c4 0 8 4 8 9l125 125c13 12 13 33 0 46s-25 12-37 0z" horiz-adv-x="1000" />

<glyph glyph-name="phone" unicode="&#xe840;" d="M842-83c-9 0-17 0-21 4-129 25-367 96-529 262-159 159-213 375-229 492-5 33 4 63 20 83 21 25 50 38 84 38h158c13 0 25-8 29-21l63-158c0-4 0-13 0-17l-29-162c37-84 95-146 200-200l162 29c4 0 13 0 17 0l162-63c13-4 21-16 21-29v-150c0-33-17-67-42-88-20-12-41-20-66-20z m-671 816c-13 0-29-4-38-16-8-9-12-17-8-29 17-113 63-317 208-463 155-154 380-221 496-246 13-4 25 0 38 8 12 9 16 21 16 38v129l-133 50-162-33c-9 0-13 0-21 4-129 63-200 138-246 246-4 4-4 12 0 17l29 162-46 133h-133z" horiz-adv-x="1000" />

<glyph glyph-name="mail-opened" unicode="&#xe841;" d="M692 375l-192-133-192 133c-12 8-33 8-41-8-9-13-9-34 8-42l208-146c5-4 13-4 17-4s13 0 17 4l208 146c13 8 17 29 8 42-8 16-29 21-41 8z m200 192l-334 200c-37 21-83 21-116 0l-334-200c-33-21-58-59-58-96v-454c0-63 50-117 117-117h666c63 0 117 50 117 117v454c0 37-25 75-58 96z m-9-550c0-30-25-50-50-50h-666c-29 0-50 25-50 50v454c0 17 8 33 25 46l333 200c8 4 17 8 25 8 8 0 17-4 25-8l333-200c17-9 25-25 25-46v-454z" horiz-adv-x="1000" />

<glyph glyph-name="large-suitcase" unicode="&#xe842;" d="M833 588h-133v112c0 29-25 54-54 54h-288c-29 0-58-25-58-54v-112h-133c-63 0-117-50-117-113v-417c0-62 50-116 117-116h666c63 0 117 50 117 116v417c0 63-54 113-117 113z m-466 104h271v-104h-271v104z m516-634c0-29-25-50-50-50h-666c-29 0-50 25-50 50v417c0 29 25 50 50 50h500 166c30 0 50-25 50-50v-417z" horiz-adv-x="1000" />

<glyph glyph-name="bag" unicode="&#xe843;" d="M929 529c-12 13-25 21-41 21h-146v50c0 63-50 117-117 117h-250c-62-4-117-54-117-117v-50h-145c-17 0-34-8-42-21-13-12-17-29-13-46l75-450c5-29 30-46 55-46h625c29 0 50 21 54 46l75 450c4 17 0 34-13 46z m-604 71c0 29 25 50 50 50h250c29 0 50-25 50-50v-50h-350v50z m483-554h-616l-71 437h758l-71-437z" horiz-adv-x="1000" />

<glyph glyph-name="small-shop-alt" unicode="&#xe844;" d="M938 467l-71 246c-9 25-29 41-54 41h-142-63-220-63-137c-25 0-46-16-55-41l-70-246c-5-17 0-34 8-46 8-8 17-17 25-21v-342c0-62 50-116 117-116h583c62 0 117 50 117 116v342c12 4 20 13 25 21 4 17 4 33 0 46z m-130 225l67-234c-50-4-92-4-117 5-16 4-37 16-62 29l-17 200h129z m-191 0l16-200c-25-13-45-25-58-29-54-17-92-17-150 0-12 4-33 16-58 29l16 200h234z m-425 0h129l-17-200c-25-13-50-25-62-29-25-9-71-9-117-5l67 234z m396-688h-188v221c0 29 25 50 50 50h83c30 0 50-25 50-50v-221z m204 0h-142v221c0 63-50 117-112 117h-84c-62 0-116-50-116-117v-217h-130c-29 0-50 25-50 50v338c9 0 17 0 21 0 29 0 59 4 79 8 25 9 55 21 75 34 21-13 50-30 75-34 34-12 63-16 92-16s58 4 92 16c25 9 54 21 75 34 21-13 50-30 75-34 25-8 54-8 79-8 8 0 17 0 21 0v-338c0-29-21-54-50-54z" horiz-adv-x="1000" />

<glyph glyph-name="shop" unicode="&#xe845;" d="M938 533l-30 175c-4 30-29 46-54 46h-137-63-121-62-125-63-137c-29 0-50-21-54-46l-29-175c-5-16 0-37 16-50 4 0 9-8 13-12v-413c0-62 50-116 116-116h584c62 0 116 50 116 116v417c9 4 13 8 17 13 8 8 17 29 13 45z m-88 159l29-167c-12-8-33-21-62-21-34 0-63 17-75 25l-17 163h125z m-321 0h129l17-163c-12-8-37-25-71-25-33 0-58 17-75 25v163z m-187 0h129v-163c-13-8-42-25-75-25-33 0-58 13-71 25l13 138 4 25z m-192 0h125l-12-159c-13-12-42-29-75-29-30 0-50 13-63 25l25 163z m692-634c0-29-25-50-50-50h-584c-29 0-50 25-50 50v388c9 0 21-4 30-4 45 0 83 16 104 33 21-17 58-33 104-33s83 16 104 33c21-17 58-33 104-33s84 16 104 33c21-17 59-33 105-33 12 0 20 0 33 4v-388z" horiz-adv-x="1000" />

<glyph glyph-name="percentage" unicode="&#xe846;" d="M708 25c-62 0-116 50-116 117s50 116 116 116 117-50 117-116-54-117-117-117z m0 167c-29 0-50-25-50-50s25-50 50-50 50 25 50 50-20 50-50 50z m-416 250c-63 0-117 54-117 116s54 113 117 113 116-50 116-113-54-116-116-116z m0 166c-29 0-50-20-50-50s21-54 50-54 50 25 50 54-21 50-50 50z m-84-583c-8 0-16 4-20 8-13 13-13 34 0 46l583 584c12 12 33 12 46 0s12-34 0-46l-584-584c-8-4-16-8-25-8z" horiz-adv-x="1000" />

<glyph glyph-name="stats-square-down" unicode="&#xe847;" d="M333 150c-16 0-33 13-33 33v334c0 16 13 33 33 33s34-17 34-33v-334c0-16-17-33-34-33z m167 0c-17 0-33 13-33 33v209c0 16 12 33 33 33s33-12 33-33v-209c0-16-16-33-33-33z m167 0c-17 0-34 13-34 33v125c0 17 13 34 34 34s33-13 33-34v-125c0-16-17-33-33-33z m183-208h-700c-29 0-58 25-58 58v700c0 29 25 54 58 54h700c29 0 54-25 54-54v-700c4-29-25-58-54-58z m-692 62h688v688h-688v-688z" horiz-adv-x="1000" />

<glyph glyph-name="upload" unicode="&#xe848;" d="M750-17h-500c-17 0-33 13-33 34s12 33 33 33h500c17 0 33-12 33-33s-16-34-33-34z m-250 167c-17 0-33 13-33 33v425l-92-91c-12-13-29-13-42 0s-12 29 0 41l146 146c4 4 9 4 9 9 8 4 16 4 25 0 4 0 8-5 8-9l146-146c12-12 12-33 0-45s-29-9-42 4l-92 91v-425c0-16-16-33-33-33z" horiz-adv-x="1000" />

<glyph glyph-name="trash" unicode="&#xe849;" d="M792 421c-17 0-34-13-34-33v-384h-516v388c0 16-13 33-34 33s-33-17-33-33v-392c0-29 25-58 58-58h534c29 0 54 25 54 58v392c4 16-13 29-29 29z m-342-279v250c0 16-12 33-33 33s-34-17-34-33v-250c0-17 13-34 34-34s33 17 33 34z m167 0v250c0 16-13 33-34 33s-33-12-33-33v-250c0-17 13-34 33-34s34 17 34 34z m258 446h-175v112c0 29-25 54-54 54h-288c-29 0-58-25-58-54v-112h-175c-17 0-33-13-33-30s16-33 33-33h750c17 0 33 13 33 33s-16 30-33 30z m-242 0h-266v104h271v-104z" horiz-adv-x="1000" />

<glyph glyph-name="refresh" unicode="&#xe84a;" d="M675 517c0-17 13-34 33-34h175c0 0 0 0 0 0h9c29 0 54 25 54 59v183c0 17-13 33-33 33s-30-16-30-33v-146c-79 134-225 221-383 221-246-4-450-204-450-450s204-450 450-450c221 0 408 163 442 379 4 17-9 34-25 38-17 4-34-9-38-25-29-188-191-330-379-330-212 0-383 171-383 384s171 387 383 387c138 0 263-70 329-187h-121c-16 0-33-13-33-29z" horiz-adv-x="1000" />

<glyph glyph-name="share-ios" unicode="&#xe84b;" d="M750-58h-500c-62 0-117 50-117 116v250c0 17 13 34 34 34s33-13 33-34v-250c0-29 25-50 50-50h500c29 0 50 25 50 50v250c0 17 13 34 33 34s34-13 34-34v-250c0-62-54-116-117-116z m-250 250c-17 0-33 12-33 33v425l-92-92c-12-12-29-12-42 0s-12 30 0 42l146 146c4 4 9 4 9 8 8 4 16 4 25 0 4 0 8-4 8-8l146-146c12-12 12-33 0-46s-29-8-42 4l-92 92v-425c0-17-16-33-33-33z" horiz-adv-x="1000" />

<glyph glyph-name="question-mark" unicode="&#xe84c;" d="M500 200c-17 0-33 13-33 33 0 105 46 146 87 180 34 29 54 50 54 104 0 83-62 116-125 116s-125-37-125-116c0-17-12-34-33-34s-25 13-25 30c0 116 96 179 188 179s187-63 187-179c0-84-42-117-75-150-33-34-67-59-67-134-4-16-16-29-33-29z m0-175c-8 0-17 4-21 8-12 13-12 30-4 46l0 0c13 13 33 13 46 0 12-12 12-33 4-46-8-4-17-8-25-8z" horiz-adv-x="1000" />

<glyph glyph-name="plus" unicode="&#xe84d;" d="M750 379h-217v221c0 17-12 33-33 33s-33-16-33-33v-217h-217c-17 0-33-12-33-33s12-33 33-33h217v-217c0-17 12-33 33-33s33 12 33 33v217h217c17 0 33 12 33 33s-16 29-33 29z" horiz-adv-x="1000" />

<glyph glyph-name="minus" unicode="&#xe84e;" d="M750 317h-500c-17 0-33 12-33 33s12 33 33 33h500c17 0 33-12 33-33s-16-33-33-33z" horiz-adv-x="1000" />

<glyph glyph-name="menu-scale" unicode="&#xe84f;" d="M458 608h-333c-17 0-33 17-33 34s16 29 33 29h333c17 0 34-13 34-33s-17-30-34-30z m209-291h-542c-17 0-33 12-33 33s12 33 33 33h542c16 0 33-12 33-33s-17-33-33-33z m208-292h-750c-17 0-33 13-33 33s12 34 33 34h750c17 0 33-13 33-34s-16-33-33-33z" horiz-adv-x="1000" />

<glyph glyph-name="eye-off" unicode="&#xe850;" d="M896-4l-750 750c-13 12-33 12-46 0s-12-33 0-46l163-162c-59-46-113-105-163-167-8-8-8-25-4-38 79-129 229-262 400-262 62 0 125 17 183 54l167-167c4-4 12-8 21-8s16 4 21 8c20 9 20 25 8 38z m-446 362l58-58c-4 0-4 0-8 0-29 0-50 25-50 50 0 4 0 4 0 8z m50-229c-137 0-267 113-337 217 45 58 91 112 145 150l92-92c-8-16-17-37-17-54 0-62 50-117 117-117 21 0 38 5 54 17l84-83c-46-21-92-38-138-38z m0 438c138 0 238-100 338-221-9-13-21-29-30-42-12-12-8-33 5-46 4-4 12-8 20-8 9 0 17 4 25 13 17 20 34 41 46 66 9 13 9 25-4 38-87 108-212 262-400 262-17 0-33-12-33-33s16-29 33-29z" horiz-adv-x="1000" />

<glyph glyph-name="check" unicode="&#xe851;" d="M375 108c-8 0-17 5-21 9l-166 166c-13 13-13 34 0 46s33 13 45 0l142-141 396 395c12 13 33 13 46 0s12-33 0-45l-417-417c-8-8-17-13-25-13z" horiz-adv-x="1000" />

<glyph glyph-name="cancel" unicode="&#xe852;" d="M546 350l196 196c12 12 12 33 0 46s-34 12-46 0l-196-196-196 196c-12 12-33 12-46 0s-12-34 0-46l196-196-196-196c-12-12-12-33 0-46s34-12 46 0l196 196 196-196c4-4 12-8 21-8s16 4 21 8c12 13 12 34 0 46l-192 196z" horiz-adv-x="1000" />

<glyph glyph-name="download" unicode="&#xe853;" d="M750-17h-500c-17 0-33 13-33 34s12 33 33 33h500c17 0 33-12 33-33s-16-34-33-34z m-250 167c-4 0-8 0-12 4-5 0-9 4-9 9l-146 145c-12 13-12 34 0 46s34 13 46 0l92-91v420c0 17 12 34 33 34s34-13 34-34v-425l87 92c13 13 33 13 46 0s12-33 0-46l-146-146c-4-4-8-4-8-8-9 4-13 0-17 0z" horiz-adv-x="1000" />

<glyph glyph-name="log-out" unicode="&#xe854;" d="M667 192c-9 0-17 4-21 8-13 13-13 33 0 46l71 71h-217c-17 0-33 12-33 33s12 33 33 33h217l-71 71c-13 13-13 34 0 46s33 13 46 0l125-125c4-4 4-8 8-8 0-4 4-9 4-13s0-8-4-12c0-4-4-9-8-9l-125-125c-9-12-17-16-25-16z m41-250h-416c-63 0-117 50-117 116v584c0 62 50 116 117 116h416c63 0 117-50 117-116v-42c0-17-12-33-33-33s-34 16-34 33v42c0 29-25 54-50 54h-416c-29-4-50-25-50-54v-584c0-29 25-50 50-50h416c30 0 50 25 50 50v42c0 17 13 33 34 33s33-12 33-33v-42c0-62-54-116-117-116z" horiz-adv-x="1000" />

<glyph glyph-name="profile-circled" unicode="&#xe855;" d="M850 71c63 75 100 175 100 279 0 246-200 450-450 450s-450-204-450-450 204-450 450-450c142 0 267 67 350 171 0 0 0 0 0 0z m-350 662c213 0 383-170 383-383 0-79-25-154-66-217-46 38-146 105-317 105-171 0-275-63-317-105-41 63-66 138-66 217 0 213 171 383 383 383z m0-771c-108 0-208 46-279 121 33 30 121 88 279 88 158 0 246-58 279-88-71-70-171-121-279-121z m0 355c88 0 158 71 158 158s-70 154-158 154c-87 0-158-66-158-154s71-158 158-158z m0 250c50 0 92-42 92-92s-42-92-92-92c-50 0-92 42-92 92s42 92 92 92z" horiz-adv-x="1000" />

<glyph glyph-name="shopping-bag-alt" unicode="&#xe856;" d="M779-58h-558c-33 0-67 12-88 41-20 25-33 59-25 92l59 375c8 58 58 96 112 96h442c58 0 104-42 112-96l0 0 59-375c4-33-4-67-25-92-25-25-54-41-88-41z m-500 541c-25 0-46-16-50-45l-58-375c-4-17 0-30 12-42 9-13 25-17 38-17h554c17 0 29 9 38 17 8 12 12 25 12 42l-58 375c-4 25-25 45-50 45h-438z m96-416c-17 0-33 12-33 33v292c0 16 12 33 33 33s33-12 33-33v-292c0-17-16-33-33-33z m250 0c-17 0-33 12-33 33v292c0 16 12 33 33 33s33-12 33-33v-292c0-17-16-33-33-33z m-42 541c-16 0-33 13-33 34 0 29-25 54-50 54s-50-25-50-54c0-17-12-34-33-34s-34 17-34 34c0 62 50 116 117 116s117-50 117-116c0-17-17-34-34-34z" horiz-adv-x="1000" />

<glyph glyph-name="home-alt-slim-horiz" unicode="&#xe857;" d="M875 421c-4 0-12 0-17 4l-358 221-358-221c-17-8-34-4-42 8-8 17-4 34 8 42l375 229c9 4 21 4 34 0l375-229c16-8 21-29 8-42-4-4-12-12-25-12z m-108-438h-534c-29 0-58 25-58 59v266c0 17 13 34 33 34s34-13 34-34v-258h521v258c0 17 12 34 33 34s33-13 33-34v-266c-4-29-33-59-62-59z m-184 167h-166c-17 0-34 13-34 33s13 34 34 34h166c17 0 34-13 34-34s-17-33-34-33z" horiz-adv-x="1000" />

<glyph glyph-name="precision-tool" unicode="&#xe858;" d="M500 483c-17 0-33 13-33 34v83c0 17 12 33 33 33s33-12 33-33v-83c0-17-16-34-33-34z m0-416c-17 0-33 12-33 33v83c0 17 12 34 33 34s33-13 33-34v-83c0-17-16-33-33-33z m-167 250h-83c-17 0-33 12-33 33s12 33 33 33h83c17 0 34-12 34-33s-17-33-34-33z m417 0h-83c-17 0-34 12-34 33s13 33 34 33h83c17 0 33-12 33-33s-16-33-33-33z m-250-417c-246 0-450 204-450 450s204 446 450 446 450-200 450-446-204-450-450-450z m0 833c-212 0-383-170-383-383s171-383 383-383 383 171 383 383-170 383-383 383z" horiz-adv-x="1000" />

<glyph glyph-name="eye-empty" unicode="&#xe859;" d="M500 233c-62 0-117 50-117 117s50 117 117 117 117-50 117-117-54-117-117-117z m0 167c-29 0-50-25-50-50s25-50 50-50 50 25 50 50-21 50-50 50z m0-333c-171 0-321 137-400 262-8 13-8 25 4 38 88 112 209 262 396 262 188 0 308-150 400-262 8-9 8-25 4-38-83-125-233-262-404-262z m-337 283c70-104 195-217 337-217s267 113 338 217c-100 121-196 221-338 221-137-4-237-100-337-221z" horiz-adv-x="1000" />

<glyph glyph-name="message" unicode="&#xe85a;" d="M150-50c-8 0-12 0-21 4-21 8-37 29-37 54v634c0 62 50 116 116 116h584c62 0 116-50 116-116v-417c0-62-50-117-116-117h-459c-16 0-29-8-41-20l-96-121c-13-13-29-17-46-17z m58 742c-29 0-50-21-50-50v-621l88 108c21 29 54 42 87 42h459c29 0 50 25 50 50v421c0 29-25 54-50 54h-584z" horiz-adv-x="1000" />

<glyph glyph-name="clock-outline" unicode="&#xe85b;" d="M750 317h-250c-17 0-33 12-33 33v250c0 17 12 33 33 33s33-12 33-33v-217h217c17 0 33-12 33-33s-16-33-33-33z m-250-417c-246 0-450 204-450 450s204 446 450 446 450-200 450-446-204-450-450-450z m0 833c-212 0-383-170-383-383s171-383 383-383 383 171 383 383-170 383-383 383z" horiz-adv-x="1000" />

<glyph glyph-name="check-circled-outline" unicode="&#xe85c;" d="M417 171c-9 0-17 4-21 8l-125 125c-13 13-13 34 0 46s33 13 46 0l104-104 267 271c12 12 33 12 45 0s13-34 0-46l-291-292c-9-4-17-8-25-8z m83-271c-246 0-450 204-450 450s204 446 450 446 450-200 450-446-204-450-450-450z m0 833c-212 0-383-170-383-383s171-383 383-383 383 171 383 383-170 383-383 383z" horiz-adv-x="1000" />

<glyph glyph-name="view-grid" unicode="&#xe85d;" d="M850-50h-242c-29 0-50 21-50 50v242c0 29 21 50 50 50h242c29 0 50-21 50-50v-242c0-29-21-50-50-50z m0 292h-242v-242h242v242z m-458-292h-242c-29 0-50 21-50 50v242c0 29 21 50 50 50h242c29 0 50-21 50-50v-242c0-29-21-50-50-50z m-267 50l267 0v242h-242v-242h-25z m725 408h-242c-29 0-50 21-50 50v242c0 29 21 50 50 50h242c29 0 50-21 50-50v-242c0-29-21-50-50-50z m-267 50l25 0v0h-25z m25 0l242 0v242l-242 0v-242z m-216-50h-242c-29 0-50 21-50 50v242c0 29 21 50 50 50h242c29 0 50-21 50-50v-242c0-29-21-50-50-50z m-267 50l25 0v0h-25z m25 0l242 0v242l-242 0v-242z" horiz-adv-x="1000" />

<glyph glyph-name="list" unicode="&#xe85e;" d="M333 575h500c13 0 25 13 25 25s-12 25-25 25h-500c-12 0-25-12-25-25s13-25 25-25z m-166 0c8 0 12 4 21 8 8 9 8 25-5 34-8 12-25 8-33 0l0 0c-12-13-8-25 0-38 4-4 13-4 17-4z m0-250c8 0 12 4 21 8 8 9 8 25-5 34-8 8-25 8-33-4l0 0c-8-9-8-25 4-34 0-4 9-4 13-4z m-17-208l0 0c-8-13-8-25 0-38 4-4 13-8 17-8 8 0 12 4 21 8 8 9 8 25 0 34-13 16-30 16-38 4z m683 258h-500c-12 0-25-12-25-25s13-25 25-25h500c13 0 25 13 25 25s-12 25-25 25z m0-250h-500c-12 0-25-12-25-25s13-25 25-25h500c13 0 25 13 25 25s-12 25-25 25z" horiz-adv-x="1000" />

<glyph glyph-name="filter" unicode="&#xe85f;" d="M833 754h-666c-42 0-75-29-75-71v-66c0-21 8-38 21-50l266-267c0 0 4-4 4-8v-242c0-33 21-63 55-71l83-21c4 0 12-4 17-4 16 0 33 4 45 17 17 12 30 33 30 58v263c0 4 0 4 4 8l266 267c13 12 21 33 21 50v66c4 42-29 71-71 71z m9-137c0-4 0-4-4-9l-267-266c-13-13-21-34-21-50v-263c0-4-4-8-4-8s-4-4-8-4l-84 21c-4 0-8 4-8 8v242c0 20-8 37-21 50l-267 270c0 0-4 5-4 9v66c0 5 4 9 9 9h666c4 0 9-4 9-9v-66z" horiz-adv-x="1000" />

<glyph glyph-name="globe" unicode="&#xe860;" d="M500 808c-254 0-458-204-458-458s204-458 458-458 458 204 458 458-204 458-458 458z m371-416h-167c-8 116-46 225-112 321 150-38 262-167 279-321z m-492-84h246c-12-112-54-220-121-308-75 88-116 196-125 308z m0 84c13 112 54 221 121 308 71-92 113-200 121-308h-242z m25 321c-62-96-100-205-108-321h-167c17 154 129 283 275 321z m-275-405h167c8-116 46-225 112-321-150 38-262 167-279 321z m467-321c62 96 100 205 112 321h167c-21-154-133-283-279-321z" horiz-adv-x="1000" />

<glyph glyph-name="credit-card" unicode="&#xe861;" d="M892 671h-784c-29 0-58-25-58-54v-534c0-29 25-58 58-58h784c29 0 54 25 54 58v534c4 29-25 54-54 54z m-9-583h-766v354h771v-354z m0 416h-766v104h771v-104z" horiz-adv-x="1000" />

<glyph glyph-name="box-iso" unicode="&#xe862;" d="M871 613l-350 154c-13 8-29 8-46 0l-346-154c-21-9-37-30-37-50v-425c0-21 12-42 33-50l350-155c8-4 17-4 21-4s17 0 21 4l350 155c21 8 33 29 33 50v425c8 20-8 41-29 50z m-371 100l300-134-112-50c0 0 0 0 0 0l-300 134 112 50z m0-267l-300 133 113 50 300-133-113-50z m-342 83l313-137v-392l-313 142v387z m375-525v388l125 54v-117c0-16 13-33 34-33s33 12 33 33v146l125 54v-387l-317-138z" horiz-adv-x="1000" />

<glyph glyph-name="delivery-box-3" unicode="&#xe863;" d="M1000 590c0 0 0 1 0 1 0 1 0 2 0 3 0 0 0 0-1 0 0 1 0 1 0 2 0 0 0 0 0 1 0 0-1 1-1 1 0 0 0 0 0 1 0 0-1 1-1 2 0 0-1 0-1 1 0 0 0 0-1 0 0 1 0 1-1 2 0 0 0 0 0 0-1 1-1 1-2 1 0 1 0 1 0 1-1 0-1 1-2 1 0 0 0 0 0 0 0 0 0 0 0 0-1 0-1 1-2 1l-478 240c-6 3-13 3-19 0l-479-240c-1 0-1 0-2-1 0 0 0 0 0 0 0 0 0 0 0 0-1 0-2-1-2-1 0 0 0 0 0 0-1-1-2-1-2-2 0 0 0 0 0 0-4-4-6-10-6-16v-467c0-8 4-15 11-19l479-250c3-1 6-2 10-2 0 0 0 0 0 0 0 0 0 0 0 0h0c4 0 7 1 10 2l479 250c7 4 11 11 11 19v469c0 0 0 0 0 0z m-500 216l433-216-183-92-432 217 182 91z m0-433l-433 217 204 101 433-216-204-102z m-21-468l-437 228v423l437-219v-432z m479 228l-437-228v432l208 104v-195c0-12 10-21 21-21s21 9 21 21v216l187 94v-423z" horiz-adv-x="1000" />

<glyph glyph-name="shopping-bag-arrow-up" unicode="&#xe864;" d="M892 75l-59 375c-8 58-58 96-112 96h-442c-58 0-104-42-112-96l-59-375c-4-33 5-67 25-92 21-25 55-41 88-41h92c16 0 33 12 33 33s-13 33-33 33h-92c-17 0-29 9-38 17-8 13-12 25-12 42l58 375c4 25 25 46 50 46h442c25 0 46-17 50-46l58-375c4-17 0-29-12-42-9-12-25-17-38-17h-91c-17 0-34-12-34-33s13-33 34-33h91c34 0 67 12 88 41 21 25 29 59 25 92z m-246 171l-125 125c-4 4-8 4-8 8-9 4-17 4-25 0-5 0-9-4-9-8l-125-125c-12-13-12-33 0-46s34-12 46 0l71 71v-213c0-16 12-33 33-33s34 13 34 33v217l70-71c13-12 34-12 46 0s4 29-8 42z m-229 362c16 0 33 13 33 34 0 29 25 50 50 50s50-25 50-50c0-17 13-34 33-34s34 13 34 34c0 62-50 116-117 116s-117-54-117-116c0-17 17-34 34-34z" horiz-adv-x="1000" />

<glyph glyph-name="data-transfer-up" unicode="&#xe865;" d="M292 608c16 0 33 13 33 34v41c0 17-12 34-33 34s-34-17-34-34v-41c0-17 17-34 34-34z m0-208c16 0 33 13 33 33v42c0 17-12 33-33 33s-34-16-34-33v-42c0-16 17-33 34-33z m562 179l-125 125c-4 4-8 4-8 9-8 4-17 4-25 0-4 0-8-5-8-9l-125-125c-13-12-13-33 0-46s33-12 45 0l71 71v-587c0-17 13-34 34-34s33 13 33 34v591l71-70c12-13 33-13 46 0s4 29-9 41z m-458-416l-71-71v175c0 16-12 33-33 33s-34-17-34-33v-175l-70 71c-13 12-34 12-46 0s-13-34 0-46l125-125c4-5 8-5 8-9 4 0 8-4 13-4s8 0 12 4c4 0 8 4 8 9l125 125c13 12 13 33 0 46s-25 12-37 0z" horiz-adv-x="1000" />

<glyph glyph-name="menu" unicode="&#xe866;" d="M875 608h-750c-17 0-33 17-33 34s16 29 33 29h750c17 0 33-13 33-33s-16-30-33-30z m0-291h-750c-17 0-33 12-33 33s12 33 33 33h750c17 0 33-12 33-33s-16-33-33-33z m0-292h-750c-17 0-33 13-33 33s12 34 33 34h750c17 0 33-13 33-34s-16-33-33-33z" horiz-adv-x="1000" />

<glyph glyph-name="navigator-alt" unicode="&#xe867;" d="M500 796c-246 0-450-200-450-446s204-450 450-450 450 204 450 450-204 446-450 446z m0-834c-212 0-383 171-383 384s171 387 383 387 383-170 383-383-170-388-383-388z m167 646l-429-116c-30-9-50-34-55-67-4-33 17-62 46-75l179-75 63-183c12-29 37-50 71-50 0 0 0 0 0 0 33 0 58 21 71 50l145 416c9 25 5 55-16 75s-50 34-75 25z m29-75l-146-416c-4-9-8-9-12-9-5 0-9 0-13 9l-71 208-204 88c-8 4-8 8-8 12 0 4 0 8 8 13l425 116c0 0 4 0 4 0 4 0 9-4 9-4 8-8 8-12 8-17z" horiz-adv-x="1000" />

<glyph glyph-name="suggestion" unicode="&#xe868;" d="M850 754h-700c-29 0-58-25-58-54v-575c0-29 25-58 58-58h171l137-146c13-13 25-17 42-17s29 8 42 17l137 146h171c29 0 54 25 54 58v575c4 29-25 54-54 54z m-8-625h-167c-17 0-29-8-42-16l-133-146-137 146c-13 12-25 16-42 16h-167v563h688v-563z m-525 234l100-55 54-100c4-8 17-16 29-16s21 4 29 16l54 100 100 55c9 4 17 16 17 29 0 12-4 21-17 29l-100 54-54 100c-12 21-41 21-54 0l-58-100-100-54c-9-4-17-17-17-29s8-21 17-29z m137 62c4 4 9 8 13 13l33 58 33-58c5-5 9-9 13-13l58-33-58-34c-4-4-8-8-13-12l-33-58-33 58c-4 4-9 8-13 12l-58 34 58 33z" horiz-adv-x="1000" />

<glyph glyph-name="pin-alt" unicode="&#xe869;" d="M500 796c-200 0-367-163-367-367 0-196 330-508 342-521l25-16 21 20c12 13 342 330 342 521 4 200-163 363-363 363z m0-821c-100 100-300 325-300 458 0 167 133 300 300 300 167 0 300-137 300-300 0-129-200-358-300-458z" horiz-adv-x="1000" />

<glyph glyph-name="repeat" unicode="&#xe86a;" d="M667 588h-334c-83 0-241-50-241-242 0-188 158-242 241-242h300l-50-46c-12-12-12-33 0-45 5-5 13-9 21-9s17 4 21 9l104 104c4 4 4 8 9 8 4 8 4 17 0 25 0 4-5 8-9 8l-104 109c-12 12-33 12-46 0s-12-34 0-46l50-50h-296c-8 0-175 0-175 175 0 175 171 175 175 175h334c8 0 175 0 175-175 0-50-13-88-38-117-12-12-8-33 4-46 13-12 34-8 46 5 38 41 54 95 54 158 0 192-158 242-241 242z" horiz-adv-x="1000" />

<glyph glyph-name="repeat-1" unicode="&#xe86b;" d="M125 354c21 0 38 17 38 38v83c0 71 58 129 129 129h496l-105-104c-12-12-12-37 0-50 9-8 17-8 25-8s17 4 25 8l167 167c4 4 4 8 8 12 5 9 5 17 0 25 0 4-4 9-8 13l-167 166c-12 13-37 13-50 0-12-12-12-37 0-50l105-104h-496c-113-4-204-91-204-204v-83c0-21 16-38 37-38z m750-12c-21 0-33-17-33-38v-83c0-71-59-133-134-133h-495l104 104c12 12 12 37 0 50-13 12-38 12-50 0l-167-167c-4-4-4-8-8-12-4-9-4-17 0-25 0-5 4-9 8-13l167-167c8-8 16-8 25-8s16 4 25 8c12 13 12 38 0 50l-104 105h495c113 0 200 91 200 200v83c0 33-12 46-33 46z" horiz-adv-x="1000" />

<glyph glyph-name="heart" unicode="&#xe86c;" d="M500-54c-25 0-50 8-67 29l-304 317c-104 108-104 279 0 387 50 54 117 84 192 84 67 0 129-25 179-71 50 46 113 71 179 71 71 0 142-30 192-84 50-50 79-121 79-196s-29-141-79-195c-33-34-67-71-100-105-67-70-133-141-208-212-17-17-42-25-63-25z m-179 746c-54 0-108-21-146-63-79-83-79-216 0-300l304-316c13-13 29-13 42 0 71 66 137 141 204 208 33 37 67 71 100 108 38 42 58 92 58 150s-20 109-58 150c-37 42-92 63-146 63-54 0-108-21-146-63l-12-12c-4-4-13-9-21-9h0c-8 0-17 5-21 9l-12 12c-38 42-92 63-146 63z" horiz-adv-x="1000" />

<glyph glyph-name="user" unicode="&#xe86d;" d="M617 358c50 38 79 92 79 159 0 108-88 200-200 200s-196-92-196-200c0-67 33-121 79-159-121-45-204-162-204-300v-41c0-17 13-34 33-34s34 13 34 34v41c0 142 116 259 258 259s258-117 258-259v-41c0-17 13-34 34-34s33 13 33 34v41c0 138-87 255-208 300z m-250 159c0 75 62 133 133 133s133-62 133-133-62-134-133-134-133 59-133 134z" horiz-adv-x="1000" />

<glyph glyph-name="simple-cart" unicode="&#xe86e;" d="M792 150h-542c-12 0-25 8-29 21l-158 525c-5 17 4 33 20 37 17 5 34-4 42-20l25-84h767c8 0 21-4 25-12 4-9 8-17 4-29l-125-417c-4-8-17-21-29-21z m-517 63h496l104 354h-708l108-354z m121-271c-50 0-92 41-92 91 0 17 13 34 34 34s33-13 33-34c0-16 12-33 33-33s34 13 34 33c0 17 12 34 33 34s33-13 33-34c-12-46-58-91-108-91z m250 0c-50 0-92 41-92 91 0 17 13 34 34 34s33-13 33-34c0-16 12-33 33-33s34 13 34 33c0 17 12 34 33 34s33-13 33-34c-12-46-58-91-108-91z" horiz-adv-x="1000" />

<glyph glyph-name="shopping-bag" unicode="&#xe86f;" d="M779-58h-558c-33 0-67 12-88 41-20 25-33 59-25 92l59 375c8 58 58 96 112 96h442c58 0 104-42 112-96l0 0 59-375c4-33-4-67-25-92-25-25-54-41-88-41z m-500 541c-25 0-46-16-50-45l-58-375c-4-17 0-30 12-42 9-13 25-17 38-17h554c17 0 29 9 38 17 8 12 12 25 12 42l-58 375c-4 25-25 45-50 45h-438z m304 125c-16 0-33 13-33 34 0 29-25 54-50 54s-50-25-50-54c0-17-12-34-33-34s-34 17-34 34c0 62 50 116 117 116s117-50 117-116c0-17-17-34-34-34z" horiz-adv-x="1000" />

<glyph glyph-name="nav-arrow-down" unicode="&#xe870;" d="M771 496c-13 12-33 12-46 0l-225-225-229 225c-13 12-33 12-46 0s-12-33 0-46l250-250c4-4 13-8 21-8s17 4 21 8l250 250c16 17 16 33 4 46z" horiz-adv-x="1000" />

<glyph glyph-name="search" unicode="&#xe871;" d="M813 79l-138 138c42 50 63 112 63 175 0 154-125 283-284 283-154 0-283-125-283-283 0-154 125-284 283-284 67 0 125 21 175 63l138-138c4-4 12-8 21-8s16 4 20 8c17 17 17 34 5 46z m-355 92c-120 0-216 100-216 217 0 120 100 216 216 216 121 0 217-100 217-216 0-59-21-113-62-155-42-37-96-62-155-62z" horiz-adv-x="1000" />

<glyph glyph-name="grid" unicode="&#xe872;" d="M267 850h-231c-15 0-28-12-28-28v-231c0-15 13-28 28-28h231c16 0 28 13 28 28v231c0 16-12 28-28 28z m-25-234h-178v178h178v-178z m374 234h-232c-15 0-27-12-27-28v-231c0-15 12-28 27-28h232c15 0 28 13 28 28v231c0 16-13 28-28 28z m-25-234h-179v178h179v-178z m-324-117h-231c-15 0-28-12-28-28v-231c0-15 13-28 28-28h231c16 0 28 13 28 28v231c0 16-12 28-28 28z m-25-231h-178v175h178v-175z m374 231h-232c-15 0-27-12-27-28v-231c0-15 12-28 27-28h232c15 0 28 13 28 28v231c0 16-13 28-28 28z m-25-231h-179v175h179v-175z m373 582h-231c-16 0-28-12-28-28v-231c0-15 12-28 28-28h231c15 0 28 13 28 28v231c0 16-13 28-28 28z m-25-234h-179v178h179v-178z m25-117h-231c-16 0-28-12-28-28v-231c0-15 12-28 28-28h231c15 0 28 13 28 28v231c0 16-13 28-28 28z m-25-231h-179v175h179v-175z m-672-131h-231c-15 0-28-13-28-28v-231c0-16 13-28 28-28h231c16 0 28 12 28 28v231c0 15-12 28-28 28z m-25-234h-178v178h178v-178z m374 234h-232c-15 0-27-13-27-28v-231c0-16 12-28 27-28h232c15 0 28 12 28 28v231c0 15-13 28-28 28z m-25-234h-179v178h179v-178z m373 234h-231c-16 0-28-13-28-28v-231c0-16 12-28 28-28h231c15 0 28 12 28 28v231c0 15-13 28-28 28z m-25-234h-179v178h179v-178z" horiz-adv-x="1000" />

<glyph glyph-name="discount34" unicode="&#xe873;" d="M909 283c-8 20-26 32-48 32h-37v516c0 10-8 19-19 19h-217c-11 0-20-9-20-19s9-20 20-20h197v-516c0-10 9-19 20-19h56c8 0 11-6 12-8 1-2 3-8-3-14l-361-361c-5-5-13-5-18 0l-361 361c-6 6-4 12-3 14 1 2 4 8 12 8h56c11 0 20 9 20 19v516h197c11 0 20 9 20 20s-9 19-20 19h-217c-10 0-19-9-19-19v-516h-37c-22 0-40-12-48-32-8-20-4-41 11-56l361-362c10-10 23-15 37-15s27 5 37 15l361 362c15 15 19 36 11 56z m-471 195c3-1 5-2 8-2 8 0 15 4 18 11l107 222c5 9 1 21-9 26-9 4-21 0-26-9l-107-222c-5-9-1-21 9-26z m162 115c-34 0-62-28-62-62s28-63 62-63 63 28 63 63-28 62-63 62z m0-86c-12 0-23 11-23 24s11 23 23 23 24-10 24-23-11-24-24-24z m-263 175c0-34 28-62 63-62s62 28 62 62-28 63-62 63-63-28-63-63z m86 0c0-13-10-23-23-23s-24 10-24 23 11 24 24 24 23-11 23-24z m155-352c11 0 20 8 20 19s-9 20-20 20h-63c-10 0-19-9-19-20v-155c0-11 9-19 19-19s20 8 20 19v60h38c11 0 20 8 20 19s-9 20-20 20h-38v37z m-219 39c-54 0-98-43-98-97s44-98 98-98 98 44 98 98-44 97-98 97z m0-156c-32 0-59 26-59 59s27 58 59 58 59-26 59-58-27-59-59-59z m360 117c11 0 20 8 20 19s-9 20-20 20h-63c-10 0-19-9-19-20v-155c0-11 9-19 19-19s20 8 20 19v60h38c11 0 20 8 20 19s-9 20-20 20h-38v37z m-219 481c5 0 10 2 14 6 3 3 6 8 6 14s-3 10-6 13-9 6-14 6-10-2-14-6c-3-3-5-8-5-13s2-11 5-14c4-4 9-6 14-6z" horiz-adv-x="1000" />

<glyph glyph-name="headphones-1" unicode="&#xe874;" d="M842 470v38c0 92-32 178-91 241-61 65-144 101-235 101h-32c-90 0-174-36-234-101-59-63-92-149-92-241v-38c-71-5-128-65-128-138v-60c0-76 62-137 137-137h78c14 0 25 11 25 25v285c0 14-11 25-25 25h-36v38c0 166 118 292 275 292h32c157 0 275-126 275-292v-38h-36c-14 0-25-11-25-25v-285c0-14 11-25 25-25h35c-10-132-100-162-142-169-12 36-45 61-85 61h-63c-48 0-88-40-88-88s40-89 88-89h64c40 0 75 28 85 65 20 3 53 10 85 29 46 27 100 81 107 191 72 5 129 64 129 138v60c1 72-56 132-128 137z m-622-285h-52c-48 0-87 39-87 88v60c0 48 39 87 87 87h52v-235z m344-285h-64c-21 0-38 17-38 38s17 38 38 38h64c21 0 38-17 38-38s-17-38-38-38z m356 373c0-49-39-88-87-88h-52v235h52c48 0 87-39 87-87v-60z" horiz-adv-x="1000" />

<glyph glyph-name="delivery-truck3" unicode="&#xe875;" d="M922 727h-557c-43 0-77-35-77-78v-70h-166c-67 0-122-54-122-122v-310c0-38 31-69 69-69h58c13-60 67-105 131-105 65 0 118 45 132 105h220c13-60 67-105 132-105s118 45 131 105h49c43 0 78 35 78 78v493c0 43-35 78-78 78z m-795-590h-58c-6 0-10 4-10 10v310c0 35 28 64 63 64h166v-282c-10 2-20 3-30 3-64 0-118-45-131-105z m131-106c-42 0-76 35-76 77s34 76 76 76c42 0 77-34 77-76 0-42-35-77-77-77z m484 0c-43 0-77 35-77 77 0 0 0 0 0 0s0 0 0 0c0 42 34 76 77 76 42 0 76-34 76-76 0-42-34-77-76-77z m180 106h-49c-13 60-67 105-131 105-65 0-119-45-132-105h-220c-7 29-22 54-44 73v439c0 11 9 20 19 20h557c11 0 19-9 19-20v-493h0c0-10-8-19-19-19z" horiz-adv-x="1000" />

<glyph glyph-name="earth-grid-symbol" unicode="&#xe876;" d="M908 638c-7 11-15 22-24 32-92 110-230 180-384 180 0 0 0 0-1 0 0 0 0 0 0 0-1 0-1 0-2 0-153-1-290-71-381-180-8-10-16-21-24-32-58-81-92-181-92-288 0-107 34-207 92-288 8-11 16-21 24-32 91-109 228-179 381-180 1 0 1 0 2 0 0 0 0 0 0 0 1 0 1 0 1 0 154 0 292 70 384 180 9 10 17 21 24 32 58 81 92 181 92 288 0 107-34 207-92 288z m-554 147c-46-44-84-109-111-187-35 13-67 29-94 47 54 64 124 113 205 140z m-229-171c31-21 67-39 107-54-17-63-27-132-28-206h-163c1 97 32 186 84 260z m-82-301h162c3-61 12-119 27-173-40-15-76-33-107-54-46 66-76 143-82 227z m106-258c28 18 59 34 94 47 27-78 65-143 111-187-81 27-151 76-205 140z m331-163c-85 12-157 98-199 223 60 18 127 28 199 30v-253z m0 294c-76-2-147-13-210-33-13 49-21 103-24 160h234v-127z m0 168h-235c1 69 10 134 25 193 63-20 134-31 210-33v-160z m0 201c-72 2-139 12-198 30 41 125 113 211 198 223v-253z m479-201h-166c0 73-10 143-27 205 41 15 77 34 109 55 52-74 83-163 84-260z m-108 291c-28-18-60-34-96-48-27 79-66 145-112 189 82-27 153-76 208-141z m-330 162c83-13 155-99 195-222-58-18-125-28-195-30v252z m0-293c74 2 144 13 207 32 15-58 24-123 24-192h-231v160z m0-201h230c-2-56-10-110-23-159-63 19-133 30-207 32l0 127 0 0z m0-420v252c70-2 137-12 195-30-40-123-112-209-195-222z m122 21c46 44 85 110 112 189 36-14 68-30 96-48-55-65-126-114-208-141z m232 172c-32 21-68 40-109 55 15 53 24 111 26 172h165c-6-84-36-161-82-227z" horiz-adv-x="1000" />

<glyph glyph-name="ticket" unicode="&#xe877;" d="M979 454c12 0 21 10 21 21v167c0 46-37 83-83 83h-834c-46 0-83-37-83-83v-167c0-11 9-21 21-21 57 0 104-47 104-104s-47-104-104-104c-12 0-21-9-21-21v-167c0-46 37-83 83-83h834c46 0 83 37 83 83v167c0 12-9 21-21 21-57 0-104 47-104 104s47 104 104 104z m-146-104c0-73 55-134 125-144v-148c0-23-18-41-41-41h-834c-23 0-41 18-41 41v148c70 10 125 71 125 144s-55 134-125 144v148c0 23 18 41 41 41h834c23 0 41-18 41-41v-148c-70-10-125-71-125-144z m-562 297c-12 0-21-9-21-21v-47c0-11 9-21 21-21 11 0 21 10 21 21v47c0 12-10 21-21 21z m0-172c-12 0-21-9-21-21v-41c0-12 9-21 21-21 11 0 21 9 21 21v41c0 12-10 21-21 21z m0-167c-12 0-21-9-21-20v-42c0-12 9-21 21-21 11 0 21 9 21 21v42c0 11-10 20-21 20z m0-166c-12 0-21-10-21-21v-42c0-11 9-21 21-21 11 0 21 10 21 21v42c0 11-10 21-21 21z m458 375h-291c-12 0-21-10-21-21 0-12 9-21 21-21h291c12 0 21 9 21 21 0 11-9 21-21 21z m0-146h-291c-12 0-21-9-21-21s9-21 21-21h291c12 0 21 10 21 21s-9 21-21 21z m0-146h-291c-12 0-21-9-21-21 0-11 9-21 21-21h291c12 0 21 10 21 21 0 12-9 21-21 21z" horiz-adv-x="1000" />

<glyph glyph-name="movie-tickets" unicode="&#xe878;" d="M953 428h-34l-582 388a16 16 0 0 1-22-4l-92-141a16 16 0 0 1 5-22 78 78 0 1 0-82-133 16 16 0 0 1-22-5l-49-83h-28a16 16 0 0 1-16-15v-157a16 16 0 0 1 16-15 78 78 0 0 0 0-157 16 16 0 0 1-16-15v-172a16 16 0 0 1 16-16h906a16 16 0 0 1 16 16v172a16 16 0 0 1-16 15 78 78 0 0 0 0 157 16 16 0 0 1 16 15v157a16 16 0 0 1-16 15z m-810 54a109 109 0 0 1 114 185l76 114 132-88-25-37a16 16 0 1 1 26-18l25 38 372-248h-211l-144 91a16 16 0 0 1-16-26l102-65h-483z m795-211a109 109 0 0 1 0-217v-142h-157v47a16 16 0 0 1-31 0v-47h-687v142a109 109 0 0 1 0 217v126h687v-47a16 16 0 0 1 31 0v47h157z m-172 32a16 16 0 0 1-16-15v-47a16 16 0 0 1 31 0v47a16 16 0 0 1-15 15z m0-109a16 16 0 0 1-16-16v-47a16 16 0 0 1 31 0v47a16 16 0 0 1-15 16z m0-110a16 16 0 0 1-16-15v-47a16 16 0 0 1 31 0v47a16 16 0 0 1-15 15z m-110 250h-453a16 16 0 0 1-15-15v-203a16 16 0 0 1 15-16h453a16 16 0 0 1 16 16v203a16 16 0 0 1-16 15z m-15-203h-422v172h422z m15-62h-453a16 16 0 0 1 0-31h453a16 16 0 0 1 0 31z m0-63h-453a16 16 0 0 1 0-31h453a16 16 0 0 1 0 31z m-225 607a16 16 0 0 1-22-4l-31-47a16 16 0 1 1 26-17l31 46a16 16 0 0 1-4 22z m-63-94a16 16 0 0 1-22-4l-31-47a16 16 0 1 1 26-17l31 47a16 16 0 0 1-4 21z m155 37l172-110a16 16 0 1 1 17 27l-172 109a16 16 0 0 1-17-26z" horiz-adv-x="1000" />

<glyph glyph-name="cinema" unicode="&#xe879;" d="M685 556l23 24 24-24-24-23z m0 0m-47 47l23 24 24-24-24-23z m0 0m-47 47l24 23 23-23-23-23z m0 0m187-187l24 23 23-23-23-23z m0 0m-46 47l23 23 23-23-23-24z m0 0m-196-265c-6 0-12 4-15 9l-30 59-65-10c-7-2-14 2-17 8-3 7-2 15 3 20l47 46-30 59c-3 6-2 14 3 19 5 5 13 6 19 3l59-30 46 47c5 5 13 6 19 3 7-3 10-11 9-18l-10-65 58-30c7-3 10-10 9-17s-7-12-14-14l-65-10-10-65c-1-7-6-12-14-14 0 0-1 0-2 0z m-35 103c6 0 11-4 14-9l12-24 5 26c1 7 6 13 13 14l27 4-24 12c-6 4-10 10-9 18l4 26-19-19c-5-5-12-6-19-3l-24 12 13-24c3-6 2-14-4-19l-19-19 27 4c1 1 2 1 3 1z m0 0m486 253l-82 82-12-12c-12-12-31-17-48-13-17 5-31 18-35 35-5 18 0 36 13 48l12 12-82 82c-19 19-51 19-70 0l-59-58-35 35c-19 19-50 19-70 0l-504-505c-20-19-20-51 0-70l81-82 12 12c20 19 51 19 70 0 20-20 20-51 0-70l-11-12 81-82c20-19 51-19 70 0l59 59 35-35c19-20 51-20 70 0l505 504c19 19 19 51 0 70z m-692-574c-3-4-7-5-12-5-4 0-8 1-11 5l-60 59c22 33 17 76-10 104-28 28-72 32-104 11l-60 59c-7 7-7 17 0 24l505 504c3 3 7 5 11 5s9-2 12-5l35-35-423-423c-19-19-19-50 0-70l82-82 12 12c19 20 50 20 70 0 19-19 19-51 0-70l-12-12 24-23z m668 527l-504-504c-7-7-17-7-24 0l-59 59c21 33 17 77-11 105-28 27-71 32-104 10l-59 60c-7 6-7 17 0 23l504 505c3 3 7 4 12 4 4 0 8-1 12-4l59-60c-22-33-17-76 11-104 27-28 71-32 104-10l59-60c7-7 7-17 0-23z m0 0" horiz-adv-x="1000" />

<glyph glyph-name="payment-security" unicode="&#xe87a;" d="M824 159c-8 0-14-6-14-15v-240c0-14-11-25-25-25h-731c-14 0-25 11-25 25v195c0 8-6 15-14 15s-15-7-15-15v-195c0-30 24-54 54-54h731c30 0 54 24 54 54v240c0 9-7 15-15 15z m-424-183c8 0 15 7 15 15s-7 15-15 15h-279c-8 0-15-7-15-15s7-15 15-15z m116 0c8 0 15 7 15 15s-7 15-15 15h-44c-8 0-15-7-15-15s7-15 15-15z m101 0c8 0 15 7 15 15s-7 15-15 15h-44c-8 0-15-7-15-15s7-15 15-15z m101 0c8 0 15 7 15 15s-7 15-15 15h-44c-8 0-15-7-15-15s7-15 15-15z m-62 464c-4 8-13 10-20 6l-12-7v14c0 8-7 14-15 14s-14-6-14-14v-14l-12 7c-7 4-16 2-20-6-5-7-2-15 5-20l12-7-12-6c-7-5-10-14-5-21 2-4 7-7 12-7 3 0 5 1 8 2l12 7v-14c0-8 6-15 14-15s15 7 15 15v14l12-7c2-1 5-2 7-2 5 0 10 3 13 7 4 7 2 16-5 21l-12 6 12 7c7 5 9 13 5 20z m118 0c-4 8-13 10-20 6l-12-7v14c0 8-7 14-15 14s-14-6-14-14v-14l-13 7c-7 4-15 2-20-6-4-7-1-15 6-20l12-7-12-6c-7-5-10-14-6-21 3-4 8-7 13-7 3 0 5 1 7 2l13 7v-14c0-8 6-15 14-15s15 7 15 15v14l12-7c2-1 5-2 7-2 5 0 10 3 13 7 4 7 2 16-5 21l-12 6 12 7c7 5 9 13 5 20z m86 13c0 8-7 14-15 14s-14-6-14-14v-14l-13 7c-7 4-16 2-20-6-4-7-1-15 6-20l12-7-12-6c-7-5-10-14-6-21 3-4 8-7 13-7 3 0 5 1 7 2l13 7v-14c0-8 6-15 14-15s15 7 15 15v14l12-7c2-1 5-2 7-2 5 0 10 3 13 7 4 7 2 16-5 21l-13 6 13 7c7 5 9 13 5 20-4 8-13 10-20 6l-12-7z m125 323h-113c-37 0-72 14-99 39l0 0-29 28c-9 9-24 9-34 0l-29-27c-26-26-61-40-98-40h-114c-8 0-14-7-14-15v-295c0-41 10-83 28-120h-454v39c0 14 11 25 25 25h353c8 0 15 6 15 14s-7 15-15 15h-353c-30 0-54-24-54-54v-213c0-8 7-14 15-14s14 6 14 14v53h578l108-68c3-2 8-4 13-4 4 0 9 2 13 4l136 86c38 24 69 57 90 96 22 38 33 83 33 127v295c0 8-7 15-15 15z m-956-459h472c16-24 37-45 61-63h-533v63z m942 149c0-81-41-155-110-198l-133-84-134 84c-69 43-110 117-110 198v281h99c44 0 87 17 119 47l25 25 26-25v0c32-30 74-47 119-47h99v-281z m-244 107c-10 0-19 9-19 19 0 8-6 15-14 15s-15-7-15-15c0-21 14-40 34-46v-18c0-8 6-14 14-14s15 6 15 14v18c19 6 34 25 34 46 0 27-22 48-49 48 0 0 0 0-1 0-10 1-18 9-18 19 0 11 9 19 19 19s19-8 19-19c0-8 7-14 15-14s15 6 15 14c0 22-15 40-34 46v18c0 8-7 15-15 15s-14-7-14-15v-18c-20-6-34-24-34-46 0-26 22-48 48-48 1 0 1 0 1 0 10-1 18-9 18-19 0-10-8-19-19-19z" horiz-adv-x="1000" />

<glyph glyph-name="cutting-with-a-scissor-on-broken-line" unicode="&#xe87b;" d="M96 122h-66c-16 0-30-14-30-30s14-30 30-30h66c17 0 30 13 30 30s-13 30-30 30z m225 0h-112c-17 0-30-14-30-30s13-30 30-30h112c17 0 30 13 30 30s-13 30-30 30z m225 0h-112c-17 0-31-14-31-30s14-30 31-30h112c17 0 30 13 30 30s-13 30-30 30z m225 0h-113c-16 0-30-14-30-30s14-30 30-30h113c16 0 30 13 30 30s-14 30-30 30z m178 0h-66c-16 0-30-14-30-30s14-30 30-30h66c17 0 31 13 31 30s-14 30-31 30z m51 186c-2 17-9 34-19 48-6 8-14 15-22 21-22 17-51 26-81 25 0 0 0 0 0 0l-7-1c-16-1-32-5-47-12 0 0 0 0 0 0-6-3-7-4-8-4-46-25-80-35-103-39 10 21 29 51 66 88 1 1 2 2 6 6 0 0 0 0 0 1 11 12 19 26 25 42l2 6c0 0 0 0 0 0 13 39 7 82-15 112 0 0 0 0 0 0-7 10-17 18-27 24-18 11-40 15-62 12-19-2-39-11-55-24-10-8-19-18-26-28-10-15-14-26-17-33-14-40-9-85 14-115 4-5 8-10 13-15 3-2 5-4 8-6l-33-77-251-44c-1 0-1 0-2 0-6-1-12-2-18-4-22-9-34-29-41-44-3-7-5-13-7-19l-3-15c-1-3 0-5 2-7 1-2 4-3 6-3l274 35-40-97h97l52 111 80 10c3-10 8-18 14-26 22-29 60-47 101-46 46 0 89 24 110 60 11 18 16 39 14 58z m-318 158c-3 2-6 5-8 8-10 13-11 32-8 46 3 19 14 36 28 46 13 10 28 13 40 8l0 0c0 0 0 0 0 0 6-2 10-6 13-11 8-10 11-26 9-41-3-21-14-40-30-52-11-8-29-14-44-4z m256-170c-1-7-4-14-9-21-12-13-31-22-52-23-17-1-40 4-52 21 0 0-1 1-1 1-8 12-7 28 3 41 10 13 26 21 45 24l2 0c17 2 41-2 55-18 1-1 2-1 2-2 5-7 8-15 7-23z" horiz-adv-x="1000" />

<glyph glyph-name="delivery-return" unicode="&#xe87c;" d="M500 850c-247 0-449-201-449-449 0-242 193-439 433-448v-103l119 119-119 118v-102c-222 9-400 192-400 416 0 230 186 417 416 417s417-187 417-417h32c0 248-202 449-449 449z m16-840l41-41-41-41v82z m-256 632v-481h480v481h-480z m192-32l0 0h96v-64h-96v64z m256-417h-416v417h128v-96h160v96h128v-417z" horiz-adv-x="1000" />

<glyph glyph-name="box-1" unicode="&#xe87d;" d="M960 629l-454 220c-4 2-8 2-12 0l-454-220c-5-2-9-7-9-13v-532c0-6 4-11 9-13l454-220c2-1 4-1 6-1s4 0 6 1l454 220c6 2 9 7 9 13v532c0 6-3 11-9 13z m-460 190l420-203-121-59c-1 1-2 2-3 2l-417 201 121 59z m-155-75l420-203-86-41-419 202 85 42z m430-230v-154l-80-39v154l80 39z m164-421l-424-205v500l101 49c7 3 10 12 7 19-4 8-12 11-20 7l-103-50-41 20c-7 3-16 0-19-7-4-7-1-16 7-19l38-19v-500l-424 205v500l323-156c2-1 4-2 6-2 6 0 11 3 14 9 3 7 0 16-7 19l-317 153 145 70 440-212c0 0 0 0 0 0v-176c0-5 3-10 7-12 3-2 5-3 8-3 2 0 4 1 6 2l110 53c5 2 8 7 8 13v177l135 65v-500z m-757 57l-67 32c-7 4-16 1-20-7-3-7 0-16 7-19l67-32c2-1 4-2 6-2 6 0 11 3 13 8 4 8 1 16-6 20z m61 40l-128 62c-7 3-16 0-20-7-3-8 0-16 7-20l128-62c2-1 4-1 6-1 6 0 11 3 14 8 3 8 0 16-7 20z" horiz-adv-x="1000" />

<glyph glyph-name="download-1" unicode="&#xe87e;" d="M668 408h-74v148c0 11-9 20-20 20h-148c-11 0-20-9-20-20v-148h-74c-7 0-14-5-17-11-3-7-3-15 2-21l167-222c4-5 10-8 16-8s12 3 16 8l167 222c5 6 5 14 2 21-3 6-10 11-17 11z m-168-210l-128 170h54c11 0 19 9 19 20v149h110v-149c0-11 9-20 19-20h55z m235 652h-470c-52 0-94-42-94-94v-812c0-52 42-94 94-94h470c52 0 94 42 94 94v812c0 52-42 94-94 94z m-525-94c0 30 25 55 55 55h470c31 0 55-25 55-55v-711h-580z m580-812c0-30-24-55-55-55h-470c-30 0-55 25-55 55v62h580v-62z m-303-16h26c11 0 20 9 20 19s-9 20-20 20h-26c-11 0-20-9-20-20s9-19 20-19z m-80 806h186c11 0 19 8 19 19s-8 20-19 20h-186c-10 0-19-9-19-20s9-19 19-19z" horiz-adv-x="1000" />

<glyph glyph-name="shopping-bag-3" unicode="&#xe87f;" d="M578 291l-92-92-45 45c-9 9-23 9-32 1-9-9-9-23 0-32l61-61c4-5 10-7 16-7 6 0 11 2 16 6l108 109c4 4 7 10 7 16s-3 11-7 15c-9 9-23 9-32 0z m0 0m256 312h-138v60c0 60-29 116-77 151-48 35-110 45-166 27-57 18-119 8-167-27-48-35-76-91-76-151v-60h-41c-1 0-1 0-2 0 0 0 0 0-1 0 0 0 0-1-1-1 0 0 0 0-1 0 0 0 0 0-1 0 0-1 0-1-1-1 0 0 0 0-1 0 0 0 0-1-1-1 0 0 0 0 0 0l-28-17c-21-13-48-13-70 0l-27 17c-7 4-16 4-23 0-7-4-12-11-12-19v-619c0-62 51-112 113-112h631c62 0 112 50 112 112v618c0 13-10 23-22 23z m-183 60v-60h-68v60c0 55-24 106-65 142 75-5 133-67 133-142z m-284-60v60c0 57 34 108 86 131 51-23 85-74 85-131v-60z m-112 60c0 75 58 137 132 142-41-36-65-87-65-142v-60h-67z m-210-701v579c33-17 71-17 104 0v-579c0-24 8-48 22-68h-58c-37 0-68 31-68 68z m766 0c0-37-30-68-67-68h-482c-38 0-68 31-68 68v596h34c2 0 3 0 4-1 2 1 3 1 4 1h86v-160c0-13 10-23 23-23 12 0 22 10 22 23v160h190c1 0 3 0 4-1 1 1 2 1 4 1h86v-160c0-13 10-23 22-23s23 10 23 23v160h115z m0 0" horiz-adv-x="1000" />

<glyph glyph-name="clock" unicode="&#xe880;" d="M500 850c-276 0-500-224-500-500 0-12 10-22 22-22s22 10 22 22c0 251 205 456 456 456s456-205 456-456-205-456-456-456c-93 0-183 28-259 81-74 51-131 123-165 207-4 11-17 17-28 12-12-4-17-17-13-29 37-92 99-170 181-227 84-57 182-88 284-88 276 0 500 224 500 500s-224 500-500 500z m0-116c-212 0-384-172-384-384s172-384 384-384 384 172 384 384c0 115-51 224-141 297-9 8-23 6-31-3-7-9-6-23 3-31 80-65 125-161 125-263 0-187-153-340-340-340s-340 153-340 340 153 340 340 340c12 0 22 10 22 22s-10 22-22 22z m0-113c-12 0-22-10-22-22v-249c0-6 2-11 6-16l97-96c4-4 10-6 15-6s11 2 16 6c8 9 8 23 0 31l-90 90v240c0 12-10 22-22 22z" horiz-adv-x="1000" />

<glyph glyph-name="right-arrow" unicode="&#xe881;" d="M989 378c0 0 0 0 0 0l-205 203c-15 15-40 15-55 0-15-16-15-40 0-56l137-136h-827c-21 0-39-17-39-39 0-22 18-39 39-39h827l-137-136c-15-16-15-40 0-56 15-15 40-15 55 0l205 203c0 0 0 0 0 0 15 16 15 40 0 56z" horiz-adv-x="1000" />

<glyph glyph-name="star-1" unicode="&#xe882;" d="M999 465c-4 10-13 18-24 20l-310 45-139 281c-5 10-15 16-26 16-11 0-21-6-26-16l-139-281-310-45c-11-2-20-10-24-20-3-11 0-22 8-30l224-219-53-309c-2-11 3-22 12-28 5-4 11-6 17-6 5 0 9 1 14 3l277 146 277-146c10-5 22-4 31 3 9 6 14 17 12 28l-53 309 224 219c8 8 11 19 8 30z" horiz-adv-x="1000" />

<glyph glyph-name="delivery-box-1" unicode="&#xe883;" d="M999 634c0 2 0 4-1 6 0 2-1 4-2 6-1 1-1 2-1 3l-125 187c-6 9-16 14-26 14h-688c-10 0-20-5-26-14l-125-187c0-1 0-2-1-3-1-2-2-4-2-6-1-2-1-4-1-6-1-1-1-2-1-3v-719c0-34 28-62 63-62h875c34 0 62 28 62 62v719c0 1 0 2-1 3z m-172 154l83-125h-290l-21 125h228z m-363 0h72l21-125h-114l21 125z m-26-188h125v-113l-53 18c-7 2-13 2-20 0l-52-18v113z m-265 188h228l-21-125h-290l83 125z m765-907v31h-875v688h312v-156c0-10 5-20 13-26 8-5 19-7 28-4l84 28 84-28c3-1 6-1 10-1 6 0 13 2 18 5 8 6 13 16 13 26v156h313v-688c0 0 0 0 0 0l0-31z m-594 282h-188c-17 0-31-14-31-32 0-17 14-31 31-31h188c17 0 31 14 31 31 0 18-14 32-31 32z m-94-125h-94c-17 0-31-14-31-32 0-17 14-31 31-31h94c17 0 31 14 31 31 0 18-14 32-31 32z" horiz-adv-x="1000" />

<glyph glyph-name="fast-delivery" unicode="&#xe884;" d="M927 645c-14 0-469 0-484 0-37 0-68-28-72-65l-51-444c-5-43 29-81 72-81h484c37 0 68 28 72 65l52 444c5 43-29 81-73 81z m-184-59l-14-104h-110l15 104z m198-16l-51-444c-1-7-7-12-14-12h-484c-8 0-15 7-14 16l51 444c1 7 7 12 14 12h132l-18-130c-3-17 11-33 29-33h168c15 0 27 11 29 25l19 138h125c9 0 15-7 14-16z m-707-316h-205c-16 0-29-13-29-29s13-29 29-29h205c17 0 30 13 30 29s-13 29-30 29z m0 125h-171c-17 0-30-13-30-29s13-29 30-29h171c17 0 30 13 30 29s-13 29-30 29z m0 125h-140c-16 0-30-13-30-29s14-29 30-29h140c17 0 30 13 30 29s-13 29-30 29z" horiz-adv-x="1000" />

<glyph glyph-name="delivered" unicode="&#xe885;" d="M205 223c-69 0-125-57-125-126s56-125 125-125c69 0 126 56 126 125 0 69-57 126-126 126z m0-186c-33 0-60 27-60 60 0 34 27 61 60 61s61-27 61-61c0-33-27-60-61-60z m560 186c-69 0-126-57-126-126s57-125 126-125c69 0 125 56 125 125 0 69-56 126-125 126z m0-186c-34 0-61 27-61 60 0 34 27 61 61 61 33 0 60-27 60-61 0-33-27-60-60-60z m-642 530c-12 0-23-7-29-17l-90-176c-3-5-4-10-4-15v-262c0-18 15-32 32-32h79v65h-46v221l78 151h247v65h-267z m845 161h-578c-18 0-32-14-32-32v-599h64v566h513v-533h-77v-65h110c18 0 32 14 32 32v599c0 18-14 32-32 32z m-131-198c-11 14-32 15-45 3l-161-143-64 65c-12 13-33 13-45 0-13-12-13-33-1-46l86-86c6-6 14-10 23-10 7 0 15 3 21 9l184 163c13 11 14 32 2 45z" horiz-adv-x="1000" />

<glyph glyph-name="discount-black" unicode="&#xe886;" d="M934 337c-4 8-4 18 0 26l37 76c21 43 4 93-38 116l-75 39c-8 5-13 12-15 21l-15 84c-8 47-51 78-98 71l-84-12c-9-1-18 2-24 8l-61 59c-34 33-88 33-122 0l-61-59c-6-6-15-9-24-8l-84 12c-47 7-90-24-98-71l-15-84c-2-9-7-16-15-21l-75-39c-42-23-59-73-38-116l38-76c4-8 4-18 0-26l-38-76c-21-43-4-93 38-115l75-40c8-5 13-12 15-21l15-84c7-42 43-72 85-72 4 0 8 0 13 1l84 12c9 1 18-2 24-8l61-59c17-17 39-25 61-25 22 0 44 8 61 25l61 59c6 6 15 9 24 8l84-12c47-7 90 24 98 71l15 84c2 9 7 16 15 21l75 40c42 22 59 72 38 115l-37 76z m-549 273c58 0 105-48 105-106s-47-106-105-106-106 48-106 106 47 106 106 106z m-55-471c-6-5-13-8-20-8s-15 3-21 8c-11 12-11 30 0 41l381 381c11 11 30 11 41 0 11-11 11-30 0-41l-381-381z m285-48c-58 0-105 47-105 105s47 106 105 106c59 0 106-47 106-106s-47-105-106-105z m0 153c-26 0-48-21-48-48s22-48 48-48c27 0 48 22 48 48s-21 48-48 48z m-230 308c-27 0-48-22-48-48 0-27 21-48 48-48 26 0 48 21 48 48 0 26-22 48-48 48z" horiz-adv-x="1000" />

<glyph glyph-name="discount" unicode="&#xe887;" d="M934 337c-4 8-4 18 0 26l37 76c21 43 4 93-38 116l-75 39c-8 5-13 12-15 21l-15 84c-8 47-51 78-98 71l-84-12c-9-1-18 2-24 8l-61 59c-34 33-88 33-122 0l-61-59c-6-6-15-9-24-8l-84 12c-47 7-90-24-98-71l-15-84c-2-9-7-16-15-21l-75-39c-42-23-59-73-38-116l38-76c4-8 4-18 0-26l-38-76c-21-43-4-93 38-115l75-40c8-5 13-12 15-21l15-84c7-42 43-72 85-72 4 0 8 0 13 1l84 12c9 1 18-2 24-8l61-59c17-17 39-25 61-25 22 0 44 8 61 25l61 59c6 6 15 9 24 8l84-12c47-7 90 24 98 71l15 84c2 9 7 16 15 21l75 40c42 22 59 72 38 115l-37 76z m-28-141l-75-39c-24-13-40-36-45-62l-14-84c-3-16-18-26-34-24l-84 12c-26 4-53-5-72-24l-61-59c-12-11-30-11-41 0l-61 59c-17 16-38 25-61 25-4 0-8-1-12-1l-84-12c-16-2-31 8-34 24l-14 84c-5 26-21 49-45 62l-75 39c-14 8-20 25-13 39l37 77c12 24 12 52 0 76l-37 77c-7 14-1 31 13 39l75 39c24 13 40 36 45 62l14 84c3 16 18 26 34 24l84-12c26-4 53 5 73 24l61 59c11 11 29 11 41 0l61-59c19-19 46-28 72-24l84 12c16 2 31-8 34-24l14-84c5-26 21-49 45-62l75-39c14-8 20-25 13-39l-37-77c-12-24-12-52 0-76l37-77c7-14 1-31-13-39z m-195 365c-11 11-30 11-41 0l-381-381c-11-11-11-29 0-41 6-5 13-8 21-8 7 0 14 3 20 8l381 381c11 11 11 29 0 41z m-326 49c-59 0-106-48-106-106s47-106 106-106 105 48 105 106-47 106-105 106z m0-154c-27 0-48 21-48 48 0 26 21 48 48 48 26 0 48-22 48-48 0-27-22-48-48-48z m230-154c-58 0-105-47-105-106s47-105 105-105c59 0 106 47 106 105s-47 106-106 106z m0-154c-26 0-48 22-48 48s22 48 48 48c27 0 48-21 48-48s-21-48-48-48z" horiz-adv-x="1000" />

<glyph glyph-name="delivery-truck" unicode="&#xe888;" d="M966 388l-68 30-58 112c-15 31-47 50-82 50h-99v28c0 51-41 92-92 92h-476c-51 0-91-41-91-92v-431c0-31 24-56 55-57 1 0 1 0 1 0h12c0-2 0-3 0-4 0-64 51-116 115-116 64-1 116 51 116 115 0 0 0 1 0 1 0 2 0 2 0 4h385c0-2 0-3 0-4-1-64 51-116 115-116 64 0 116 51 116 115 0 1 0 1 0 1 0 2 0 2 0 5h29c31 0 56 25 56 56 0 0 0 0 0 1v158c0 22-13 43-34 52z m-782-344c-39 0-71 32-71 71 0 39 32 71 71 71s71-32 71-71c0-39-32-71-71-71z m430 120h-325c-19 41-60 67-105 67-45 0-86-26-105-67h-23c-7 0-11 6-11 13v115h569v-128z m0 444v-272h-569v272c0 26 20 48 46 48h476c26-1 47-22 47-48v0z m45-73h99c18 0 34-9 43-25l44-87h-186v112z m141-491c-40 0-71 32-71 71 0 39 31 71 71 71s71-32 71-71c0-39-32-71-71-71z m156 133c0-7-5-13-12-13h-40c-27 58-96 83-153 56-25-11-45-31-56-56h-36v215h218l71-32c5-2 8-7 8-12v-158z" horiz-adv-x="1000" />

<glyph glyph-name="source_icons_more-horiz" unicode="&#xe889;" d="M750 400c29 0 50-21 50-50s-21-50-50-50-50 21-50 50 21 50 50 50z m-250 0c29 0 50-21 50-50s-21-50-50-50-50 21-50 50 21 50 50 50z m-250 0c67 0 67-100 0-100-67 0-67 100 0 100z" horiz-adv-x="1000" />

<glyph glyph-name="shop-1" unicode="&#xe88a;" d="M850 650h-587c0 0 0 0-3 0l-20 53c-15 42-57 72-105 72h-85c-20 0-37-17-37-37s17-38 37-38h85c15 0 30-10 35-25l173-455c20-50 72-80 125-70l325 60c30 5 55 25 65 53l97 235c30 72-25 152-105 152z m35-127l-97-235c-3-5-5-8-10-8l-325-60c-18-2-35 8-43 23l-125 327 565 5c28 0 45-27 35-52z m-547-448c42 0 75-32 75-75s-33-75-75-75-75 32-75 75 32 75 75 75z m450 0c42 0 75-32 75-75s-33-75-75-75c-43 0-75 32-75 75s32 75 75 75z" horiz-adv-x="1000" />

<glyph glyph-name="shopping-cart" unicode="&#xe88b;" d="M375 58c46 0 83-37 83-83s-37-83-83-83-83 37-83 83 37 83 83 83z m458 0c46 0 84-37 84-83s-38-83-84-83-83 37-83 83 38 83 83 83z m159 567c-9 13-21 17-34 17h-675l-33 175c-4 21-21 33-42 33h-166c-25 0-42-17-42-42s17-41 42-41h133l33-175v-4l71-346c13-59 63-100 121-100 0 0 0 0 4 0h404c63 0 113 41 125 100l67 350c0 12 0 25-8 33z m-142-367c-4-20-21-33-42-33h-404c-21 0-37 13-41 33l-63 300h608l-58-300z" horiz-adv-x="1000" />

<glyph glyph-name="credit-card-2" unicode="&#xe88c;" d="M533 192h267c10 0 16 6 16 16v150c0 10-6 17-16 17h-267c-10 0-16-7-16-17v-150c0-10 6-16 16-16z m17 150h233v-117h-233v117z m-467 66h134c10 0 16 7 16 17s-6 17-16 17h-134c-10 0-16-7-16-17s6-17 16-17z m200 0h134c10 0 16 7 16 17s-6 17-16 17h-134c-10 0-16-7-16-17s6-17 16-17z m-200-66h217c10 0 17 6 17 16s-7 17-17 17h-217c-10 0-16-7-16-17s6-16 16-16z m334 33h-50c-10 0-17-7-17-17s7-16 17-16h50c10 0 16 6 16 16s-6 17-16 17z m568 207c-12 15-27 23-45 25l-40 4v47 34c0 36-30 66-67 66h-766c-37 0-67-30-67-66v-34-133-367c0-30 20-55 48-63-1-34 24-63 59-67l769-86c2 0 5 0 7 0 33 0 63 25 67 56l50 535c1 17-4 35-15 49z m-952 60h833v-44-56h-833v100z m34 83h766c18 0 33-15 33-33v-17h-833v17c0 18 15 33 34 33z m-34-567v350h833v-350c0-18-15-33-33-33h-765-1c-19 0-34 15-34 33z m933 382l-50-535c-1-18-18-32-36-30l-768 87c-17 1-29 15-30 30h751c37 0 67 30 67 66v367 55l38-3c8 0 17-5 22-12 5-7 8-17 6-25z" horiz-adv-x="1000" />

<glyph glyph-name="24-hours" unicode="&#xe88d;" d="M852 116c94 78 148 194 148 317 0 230-187 417-417 417-124 0-238-54-318-147-15 15-31 29-47 37-32 17-72 10-97-15l-41-42c-84-83-102-180-52-286 17-35 42-70 73-102l342-342c27-26 53-48 82-63 46-27 93-40 136-40 62 0 120 27 172 78l42 44c26 25 31 65 15 96-9 16-22 32-38 48z m-269 701c212 0 383-172 383-384 0-114-50-221-139-294-43 35-89 62-92 64-14 8-30 13-44 13-6 0-12-1-18-3-13-3-25-11-33-25-17-21-39-45-44-48-40-27-71-23-105 10l-175 177c-1 1-2 2-3 3 0 0 0 0-1 1l-11 11c-33 35-36 65-10 105 5 5 29 26 49 43 2 2 4 3 6 5 4 3 7 7 10 11 4 5 7 11 9 17 5 19 0 40-12 62-2 3-29 49-65 92 74 90 180 140 295 140z m267-824l-42-41c-78-79-167-90-268-34-25 14-50 34-74 57l-341 343c-30 30-52 62-67 94-43 93-28 175 45 248l42 42c15 15 38 18 55 8 55-28 121-140 121-142 9-13 12-26 9-36-2-5-5-10-12-14l-2-1c-13-14-48-42-55-52-9-14-16-28-19-42-12 23-21 49-24 79-2 10-8 16-18 15-10-2-17-10-15-19 11-116 103-191 106-195 0 0 0 0 0 0l177-176c1-2 3-3 4-4 0 0 1-1 1-1 2-4 77-77 192-89h1c9 0 15 7 17 15 0 10-7 17-15 19-35 3-66 14-92 26 13 4 26 10 39 19 11 6 40 40 51 55l2 1c3 7 7 10 13 12 1 0 1 0 1 0 10 1 22-2 34-8 0 0 114-67 142-122 10-18 7-42-8-57z m-267 740c10 0 17 7 17 17v33c0 10-7 17-17 17s-17-7-17-17v-33c0-10 7-17 17-17z m317-316h33c10 0 17 6 17 16 0 10-7 17-17 17h-33c-10 0-17-7-17-17 0-10 7-16 17-16z m-94 223c5 0 9 2 12 5l23 23c7 7 7 17 0 24-6 6-16 6-23 0l-23-24c-7-6-7-16 0-23 3-3 6-5 11-5z m12-465c3-3 7-5 12-5s10 0 11 5c7 7 7 17 0 23l-23 24c-7 6-17 6-23 0-7-7-7-17 0-24l23-23z m-447 470c7 7 7 17 0 23l-23 24c-7 6-17 6-23 0s-7-17 0-24l23-23c3-3 7-5 12-5 3 0 8 2 11 5z m212-228h117c10 0 16 6 16 16 0 10-6 17-16 17h-100v217c0 10-7 16-17 16s-17-6-17-16v-234c0-10 7-16 17-16z" horiz-adv-x="1000" />

<glyph glyph-name="delivery-1" unicode="&#xe88e;" d="M850 483c0 209-150 367-350 367s-350-158-350-367c0-44 34-80 78-83l222-167c-10 0-17-6-17-16h-83c-28 0-50-22-50-50v-267c0-28 22-50 50-50h300c28 0 50 22 48 50v267c0 28-21 50-50 50h-81c0 10-7 16-17 16l223 167c43 3 77 39 77 83z m-318-368l-24 17c-5 3-13 3-18 0l-23-17v85h65v-85z m-232 318c15-20 39-33 67-33 27 0 51 13 66 33 15-20 40-33 67-33 28 0 52 13 67 33 15-20 39-33 66-33s52 13 67 33c8-10 17-18 29-24l-229-171-229 171c12 6 22 14 29 24z m17 56c0 1 0 2 0 2 0 2 0 3 0 4 0 1 0 2 0 3 0 1 0 2 0 3 0 1 0 2 0 3 0 1 0 2 1 3 0 1 0 2 0 3 0 1 0 2 0 3 0 1 0 2 0 3 0 1 0 2 0 2 1 5 1 10 2 15 0 0 0 1 0 1 0 2 1 3 1 5 0 0 0 1 0 1 0 2 0 3 1 5 0 0 0 1 0 1 0 2 0 4 1 5 0 1 0 1 0 2 0 1 0 3 1 4 0 1 0 1 0 1 1 5 2 10 3 15 0 1 0 2 0 3 0 1 1 2 1 3 0 1 0 3 1 4 0 1 0 2 0 2 1 2 1 4 1 5 1 1 1 1 1 2 22 91 68 183 127 214-17-45-28-116-33-180 0 0 0-1-1-1 0-1 0-2 0-3-6-69-7-129-7-137 0-1 0-1 0-1 0-1 0-1 0-1 0-28-22-50-50-50s-50 22-50 50c0 2 0 4 0 6z m352 103c0-1 1-1 1-2 0-1 0-3 1-5 0 0 0-1 0-2 1-1 1-3 1-4 0-1 1-2 1-3 0-1 0-2 0-3 1-5 2-10 3-15 0 0 0 0 0-1 1-1 1-3 1-4 0-1 0-1 1-2 0-1 0-3 0-5 0 0 0-1 0-1 1-2 1-3 1-5 0 0 0-1 0-1 1-2 1-3 1-5 0 0 0-1 0-1 1-5 1-10 2-15 0 0 0-1 0-2 0-1 0-2 0-3 0-1 0-2 0-3 0-1 1-2 1-3 0-1 0-2 0-3 0-1 0-2 0-3 0-1 0-2 0-3 0-1 0-2 0-3 0-1 0-2 0-4 0 0 0-1 0-2 0-2 0-4 0-6 0-28-21-50-50-50s-50 22-50 50c0 0 0 0 0 1 0 0 0 0 0 1 0 8-1 68-7 137 0 1 0 2 0 3 0 0 0 1 0 1-6 64-16 135-34 180 59-31 105-123 127-214z m-169 223c23-20 50-193 50-332 0-28-22-50-50-50-28 0-50 22-50 50 0 139 27 310 50 332z m317-332c0-28-22-50-50-50-29 0-50 22-50 50 0 3 0 6 0 9 0 1 0 2 0 2-1 3-1 6-1 8 0 1 0 1 0 1 0 4 0 7 0 10 0 0 0 1 0 1-1 3-1 6-1 9 0 1 0 1 0 1-4 41-14 86-29 129 0 0 0 0 0 0-1 4-2 7-3 10 0 0 0 1-1 1-1 3-2 5-3 8 0 2-1 4-2 6 0 1 0 1-1 1-18 47-43 90-73 121 127-43 214-165 214-317z m-634 0c0 152 87 274 214 317-30-31-55-74-73-121-1 0-1 0-1-1-1-2-1-4-2-6-1-3-2-5-3-8 0 0-1-1-1-1-1-3-2-6-3-10 0 0 0 0 0 0-15-43-25-88-29-129 0 0 0 0 0-1 0-3 0-6 0-9 0 0 0-1-1-1 0-3 0-6 0-10 0 0 0 0 0-1 0-2 0-5 0-8 0 0 0-1-1-2 0-3 0-6 0-9 0-28-21-50-50-50-28 0-50 22-50 50z m467-300c10 0 17-6 17-16v-267c0-10-7-17-17-17h-300c-10 0-17 7-17 17v267c0 10 7 16 17 16h83v-100c0-6 4-11 10-13 5-3 12-3 17 0l40 27 42-29c5-3 11-3 16 0 5 4 9 9 9 15v100h83z m-17-250h-33c-10 0-17-6-17-16s7-17 17-17h33c10 0 17 7 17 17s-7 16-17 16z m-83 34c0-10 7-17 17-17h66c10 0 17 7 17 17 0 10-7 16-17 16h-66c-10 0-17-6-17-16z" horiz-adv-x="1000" />

<glyph glyph-name="delivery-man-1" unicode="&#xe88f;" d="M950 20c-99 53-176 82-244 94l7 9c4 4 5 9 4 14l-16 62c41 59 65 132 64 201v100c1 1 1 1 2 2 21 18 33 45 33 71 0 125-102 227-225 227h-148c-21 0-41-2-62-8-39 36-91 58-148 58-120 0-217-97-217-217s97-216 217-216c5 0 11 0 16 0v-17c0-69 25-142 66-201l-16-62c0-4 0-9 4-14l7-9c-68-12-144-41-244-94-32-15-50-47-50-82v-71c0-10 7-17 17-17h966c10 0 17 7 17 17v71c0 34-20 65-50 82z m-275 147l7-30-17-24c-1-1-2-2-3-3l-92-127-45 102c51 6 97 31 135 67 5 4 10 9 15 15z m71 362c-2 0-4-1-6-2-13-10-28-14-43-10-95 18-193 22-289 13 8 16 15 34 19 52 88 5 177 0 265-15l71-14c-4-9-10-17-17-24z m-173 238c103 0 186-80 193-180l-69 11c-88 17-176 23-264 17 0 6 0 12 0 18 0 49-16 94-43 131 13 1 24 3 35 3h148z m-540-134c0 102 82 184 184 184 49 0 94-20 127-52 1-1 2-2 3-3 33-35 51-80 51-129 0-41-13-80-40-113-1-2-3-4-3-6-28-32-66-54-108-61-2 0-3 0-4-1-9-1-17-2-26-2-102 0-184 82-184 183z m234-211c46 11 86 37 115 71 38 5 76 7 114 7 65 0 130-5 194-17 5-1 8-1 12-1 10-1 21 1 31 3v-85c0-73-25-137-62-186l-1-1c-2-1-3-3-5-5-8-11-17-21-26-30-42-39-92-61-139-61-2 0-3 0-5 0-28 1-57 10-85 25-27 15-52 38-75 66-2 2-3 4-5 5l-1 1c-37 49-62 113-62 186v22z m208-337l-45-102-92 127c0 1-1 1-1 2l-19 25 7 30c2-3 5-5 7-7 39-41 88-68 143-75z m492-202h-384-550v55c0 22 12 42 32 52 106 56 183 85 251 93l104-143c3-4 6-6 11-6 1-1 2-1 2-1 0 0 2 0 2-1 5 0 12 5 13 10l52 116 22-48 30-67c1-5 6-10 13-10h2c5 0 10 4 13 7l105 145c68-10 146-39 250-93 20-12 32-32 32-54v-55z m-500 750h66c10 0 17 7 17 17v83c0 10-7 17-17 17h-66c-10 0-17-7-17-17v-83c0-10 7-17 17-17z m16 84h34v-50h-34v50z m-183-117v-33c0-10 7-17 17-17s16 7 16 17v33h17c10 0 17 7 17 17s-7 16-17 16h-17v84c0 6-5 13-11 16-7 2-14 0-19-5l-83-100c-3-5-5-11-2-18s9-10 15-10h67z m0 70v-37h-32l32 37z m-100-88h-68l58 50c17 16 22 43 13 65-10 23-28 36-53 36-37 0-67-30-67-66 0-10 7-17 17-17s17 7 17 17c0 18 15 33 33 33 15 0 20-12 22-17 3-6 3-18-5-26l-75-65c-9-7-10-17-7-27 5-8 13-15 23-15h92c10 0 17 5 17 15 0 10-7 17-17 17z" horiz-adv-x="1000" />

<glyph glyph-name="delivery-truck-1" unicode="&#xe890;" d="M200 158c-18 0-33-15-33-33s15-33 33-33c18 0 33 15 33 33s-15 33-33 33z m600 0c-18 0-33-15-33-33s15-33 33-33 33 15 33 33-15 33-33 33z m-50 117h-33c-10 0-17-7-17-17s7-16 17-16h33c10 0 17 6 17 16s-7 17-17 17z m228 35l-65 27-41 166c-5 24-25 39-49 39h-106v100c0 18-15 33-34 33h-650c-18 0-33-15-33-33v-300-200c0-19 15-34 33-34h68c8-47 50-83 99-83 49 0 91 36 99 83h402c8-47 50-83 99-83 49 0 91 36 99 83h68c18 0 33 15 33 34v136c0 15-8 27-22 32z m-945 332h650v-117-17c0-83-66-150-150-150h-500v284z m167-584c-37 0-67 30-67 67 0 37 30 67 67 67 37 0 67-30 67-67 0-37-30-67-67-67z m600 0c-37 0-67 30-67 67 0 37 30 67 67 67 37 0 67-30 67-67 0-37-30-67-67-67z m167 84h-68c-6 33-28 61-58 74-1 0-1 1-2 1 0 0-1 0-1 1-1 0-2 0-3 1-1 0-1 0-1 0-2 1-3 1-4 1 0 1-1 1-1 1-1 0-2 0-4 1 0 0 0 0 0 0-2 0-3 1-4 1-1 0-1 0-1 0-2 0-3 1-4 1 0 0-1 0-1 0-1 0-3 0-4 0 0 0-1 1-1 1-1 0-3 0-4 0 0 0-1 0-1 0-2 0-3 0-5 0-2 0-3 0-5 0 0 0-1 0-1 0-1 0-3 0-4 0 0 0-1-1-1-1-1 0-3 0-4 0 0 0 0 0-1 0-1 0-2-1-4-1 0 0 0 0-1 0-1 0-2-1-3-1-1 0-1 0-1 0-2-1-3-1-4-1 0 0-1 0-1-1-1 0-2 0-4-1 0 0 0 0-1 0-1-1-2-1-3-1 0-1-1-1-1-1-1 0-1-1-2-1-30-13-52-41-58-74h-402c-6 33-28 61-58 74-1 0-1 1-2 1 0 0-1 0-1 1-1 0-2 0-3 1-1 0-1 0-1 0-2 1-3 1-4 1 0 1-1 1-1 1-1 0-2 0-4 1 0 0 0 0 0 0-2 0-3 1-4 1-1 0-1 0-1 0-2 0-3 1-4 1 0 0-1 0-1 0-1 0-3 0-4 0 0 0-1 1-1 1-1 0-3 0-4 0 0 0-1 0-1 0-2 0-3 0-5 0-2 0-3 0-5 0 0 0-1 0-1 0-1 0-3 0-4 0 0 0-1-1-1-1-1 0-3 0-4 0 0 0 0 0-1 0-1 0-2-1-4-1 0 0 0 0-1 0-1 0-2-1-3-1-1 0-1 0-1 0-2-1-3-1-4-1 0 0-1 0-1-1-1 0-2 0-4-1 0 0 0 0-1 0-1-1-2-1-3-1 0-1-1-1-1-1-1 0-1-1-2-1-30-13-52-41-58-74h-68v183h500c102 0 184 82 184 183h106c9 0 15-6 17-13l38-153h-73c-12 0-22 10-22 21v79c0 10-6 16-16 16-10 0-17-6-17-16v-79c0-30 25-55 55-55h88l74-28v-138z m-784 466h-83c-10 0-17-6-17-16v-184c0-10 7-16 17-16s17 6 17 16v84h50c10 0 16 6 16 16s-6 17-16 17h-50v50h66c10 0 17 7 17 17s-7 16-17 16z m284-33c10 0 16 7 16 17s-6 16-16 16h-84c-10 0-16-6-16-16v-184c0-10 6-16 16-16h84c10 0 16 6 16 16 0 10-6 17-16 17h-67v67h33c10 0 17 6 17 16s-7 17-17 17h-33v50h67z m150-167c0 10-7 17-17 17h-67v67h34c10 0 16 6 16 16s-6 17-16 17h-34v50h67c10 0 17 7 17 17s-7 16-17 16h-83c-10 0-17-6-17-16v-184c0-10 7-16 17-16h83c10 0 17 6 17 16z m-321 74c22 11 37 34 37 60 0 36-30 66-66 66h-34c-10 0-16-6-16-16v-184c0-10 6-16 16-16s17 6 17 16v67h9l61-77c3-5 8-6 13-6 4 0 7 1 10 3 9 5 9 17 4 23l-51 64z m4 60c0-18-14-33-32-34-1 0-2 0-2 0h-16v67h17c18 0 33-15 33-33z" horiz-adv-x="1000" />

<glyph glyph-name="invoice" unicode="&#xe891;" d="M583 483c-39 0-76-12-105-33h-195c-10 0-16-7-16-17 0-10 6-16 16-16h159c-16-20-28-42-35-67h-124c-10 0-16-7-16-17s6-16 16-16h118c-1-6-1-11-1-17 0-17 2-34 7-50h-124c-10 0-16-7-16-17s6-16 16-16h137c30-60 92-100 163-100 102 0 184 81 184 183 0 102-82 183-184 183z m0-333c-83 0-150 67-150 150 0 10 1 19 3 28 0 1 0 2 1 3 7 36 27 67 55 88 1 1 2 2 3 3 25 18 55 28 88 28 84 0 150-67 150-150 0-83-66-150-150-150z m92 232c-8 5-18 3-23-5l-89-134-51 52c-7 7-17 7-24 0-6-7-6-17 0-23l67-67c3-3 7-5 12-5 6 0 11 3 13 8l100 150c5 9 3 19-5 24z m225 468h-650c-47 0-83-37-83-83v-684h-117c-28 0-50-21-50-50v-83c0-55 45-100 100-100h623 10c25 0 49 10 67 27 22 18 33 45 33 73v667h117c28 0 50 21 50 50v83c0 55-45 100-100 100z m-800-967c-37 0-67 30-67 67v83c0 9 7 17 17 17h133 450v-97-3c0-25 9-48 25-67h-558z m700 867v-800c0-20-8-37-22-50-12-10-27-16-42-17-1 0-2 0-3 0-11 0-22 3-31 8-21 12-35 35-35 62v114c0 10-7 16-17 16h-450v684c0 28 22 50 50 50h575c-3-4-6-8-9-13-9-14-15-31-16-49 0-2 0-3 0-5z m167-83c0-9-7-17-17-17h-117v100c0 37 30 67 67 67 37 0 67-30 67-67v-83z m-567 50h200c10 0 17 6 17 16s-7 17-17 17h-200c-10 0-17-7-17-17s7-16 17-16z m-117-100h434c10 0 16 6 16 16s-6 17-16 17h-434c-10 0-16-7-16-17s6-16 16-16z m0-100h434c10 0 16 6 16 16s-6 17-16 17h-434c-10 0-16-7-16-17s6-16 16-16z" horiz-adv-x="1000" />

<glyph glyph-name="operator-1" unicode="&#xe892;" d="M950 20c-99 53-176 82-244 94l7 9c4 4 5 9 4 14l-16 62c6 8 11 16 16 25 62 21 94 57 99 109 27 2 51 26 51 54v125c0 27-22 51-51 53-3 96-46 285-316 285-60 0-116-12-164-35-34 22-75 35-119 35-120 0-217-97-217-217 0-90 55-167 133-200v-46c0-29 25-54 55-54h25c10 0 18 3 26 8 10-51 30-100 60-142l-16-62c0-4 0-9 4-14l7-9c-68-12-144-41-244-94-32-15-50-47-50-82v-71c0-10 7-17 17-17h400 6 154 6 400c10 0 17 7 17 17v71c0 34-20 65-50 82z m-450 38l40-91h-81l41 91z m-53-125h106l9-50h-125l10 50z m228 234l7-30-17-24c-1-1-2-2-3-3l-70-96-22-30-45 101c55 7 104 35 143 75 3 2 5 4 7 7z m65 103c10 23 17 47 21 71 6-4 14-6 21-7-2-24-13-46-42-64z m92 243v-125c0-10-9-20-20-20h-25c-10 0-20 9-20 20v12 113c0 10 8 20 20 20h25c10 0 20-8 20-20z m-332 304c103 0 276-34 283-252-7-1-14-3-20-6-20 127-131 224-263 224-37 0-73-7-107-23-9 12-18 22-29 32 41 16 87 25 136 25z m-467-184c0 102 82 184 184 184 64 0 120-33 153-83 1-1 1-3 2-4 17-26 27-57 28-89 0-1 0-1 0-2 0-2 0-4 0-6 0-2 0-5 0-8 0 0 0 0 0 0 0-3 0-6-1-8 0 0 0 0 0 0-7-83-70-150-152-164-2 0-3 0-4-1-9-1-17-2-26-2-102 0-184 82-184 183z m199-245c0-10-9-20-20-20h-25c-10 0-20 9-20 20v34c5-1 10-2 15-3 17-3 33-4 50-2v-29z m35 34c89 22 157 98 166 192 0 0 0 1 0 1 0 3 0 6 0 8 0 1 0 1 0 2 0 3 0 5 0 8 0 2 0 5 0 7 0 0 0 1 0 1 0 2 0 3 0 5 0 0 0 1 0 1 0 2 0 4 0 5 0 1-1 1-1 1-1 22-7 42-14 61 0 1 0 1 0 1-1 1-2 3-2 4-1 1-1 2-2 3 0 1 0 1 0 1-1 3-3 6-4 9 28 11 58 18 90 18 128 0 233-105 233-233v-117c0-55-14-106-37-148-40-12-97-19-179-19-10 0-17-6-17-16s7-17 17-17c60 0 110 4 151 11-1-1-2-2-3-3-8-11-17-21-26-30-40-37-86-59-132-61-2 1-4 1-7 1-3 0-5 0-7-1-28 1-56 10-83 25-27 15-52 38-75 66-2 2-3 4-5 5l-1 1c-37 49-62 113-62 186v22z m208-337l-45-101-22 30-70 96c0 1-1 1-1 2l-19 25 7 30c2-3 5-5 7-7 39-40 88-68 143-75z m-442-147c0 22 12 42 32 52 106 56 183 85 251 93l99-137-12-63h-370v55z m934-55h-370l-12 63 100 139c68-10 146-39 250-93 20-12 32-32 32-54v-55z m-734 717h67v-33c0-10 7-17 17-17s16 7 16 17v33h17c10 0 17 7 17 17s-7 16-17 16h-17v84c0 6-5 13-11 16-7 2-14 0-19-5l-83-100c-3-5-5-11-2-18s9-10 15-10z m67 70v-37h-32l32 37z m-100-88h-68l58 50c17 16 22 43 13 65-10 23-28 36-53 36-37 0-67-30-67-66 0-10 7-17 17-17s17 7 17 17c0 18 15 33 33 33 15 0 20-12 22-17 3-6 3-18-5-26l-75-65c-9-7-10-17-7-27 5-8 13-15 23-15h92c10 0 17 5 17 15 0 10-7 17-17 17z" horiz-adv-x="1000" />

<glyph glyph-name="operator" unicode="&#xe893;" d="M950 20c-99 53-176 82-244 94l7 9c4 4 5 9 4 14l-16 62c6 8 11 16 16 25 62 21 94 57 99 109 27 2 51 26 51 54v125c0 27-22 51-51 53-3 96-46 285-316 285-270 0-313-189-316-285-27-2-51-24-51-53v-125c0-29 25-54 55-54h25c10 0 18 3 26 8 10-51 30-100 60-142l-16-62c0-4 0-9 4-14l7-9c-68-12-144-41-244-94-32-15-50-47-50-82v-71c0-10 7-17 17-17h400 6 154 6 400c10 0 17 7 17 17v71c0 34-20 65-50 82z m-450 38l40-91h-81l41 91z m-53-125h106l9-50h-125l10 50z m228 234l7-30-17-24c-1-1-2-2-3-3l-70-96-22-30-45 101c55 7 104 35 143 75 3 2 5 4 7 7z m65 103c10 23 17 47 21 71 6-4 14-6 21-7-2-24-13-46-42-64z m92 243v-125c0-10-9-20-20-20h-25c-10 0-20 9-20 20v12 113c0 10 8 20 20 20h25c10 0 20-8 20-20z m-332 304c103 0 276-34 283-252-7-1-14-3-20-6-20 127-131 224-263 224-132 0-243-97-263-224-6 3-13 5-20 6 7 218 180 252 283 252z m-268-429c0-10-9-20-20-20h-25c-10 0-20 9-20 20v125c0 10 8 20 20 20h25c10 0 20-8 20-20v-125z m35 129c0 128 105 233 233 233s233-105 233-233v-117c0-55-14-106-37-148-40-12-97-19-179-19-10 0-17-6-17-16s7-17 17-17c60 0 110 4 151 11-1-1-2-2-3-3-8-11-17-21-26-30-40-37-86-59-132-61-2 1-4 1-7 1-3 0-5 0-7-1-28 1-56 10-83 25-27 15-52 38-75 66-2 2-3 4-5 5l-1 1c-37 49-62 113-62 186v117z m208-432l-45-101-22 30-70 96c0 1-1 1-1 2l-19 25 7 30c2-3 5-5 7-7 39-40 88-68 143-75z m-442-147c0 22 12 42 32 52 106 56 183 85 251 93l99-137-12-63h-370v55z m934-55h-370l-12 63 100 139c68-10 146-39 250-93 20-12 32-32 32-54v-55z" horiz-adv-x="1000" />

<glyph glyph-name="package-1" unicode="&#xe894;" d="M983 50h-99c11 14 17 31 18 50v650c0 47-37 83-84 83h-201c0 10-7 17-17 17h-200c-10 0-17-7-17-17h-200c-46 0-83-36-83-83v-650c0-19 6-36 16-50h-99c-10 0-17-7-17-17v-100c0-10 7-16 17-16h16v-50c0-10 7-17 17-17h133c10 0 17 7 17 17v50h217v-50c0-10 6-17 16-17h134c10 0 16 7 16 17v50h217v-50c0-10 7-17 17-17h133c10 0 17 7 17 17v50h16c10 0 17 6 17 16v100c0 10-7 17-17 17z m-400 767v-164l-73 60c-2 2-7 4-10 4s-8-2-10-5l-73-60v165h166z m-450-717v650c0 28 22 50 50 50h200v-183c0-7 4-12 9-15 6-4 13-2 18 1l90 75 88-75c4-2 10-4 15-3 1 0 3 1 4 2 6 3 10 8 10 15v183h200c28 0 50-22 50-50v-650c0-28-22-50-50-50h-634c-28 0-50 22-50 50z m34-217h-100v34h100v-34z m383 0h-100v34h100v-34z m383 0h-100v34h100v-34z m34 67h-17-133-250-134-250-133-17v67h150 634 150v-67z m-167 167h-83c-10 0-17-7-17-17s7-17 17-17h83c10 0 17 7 17 17s-7 17-17 17z m17 50c0 10-7 16-17 16h-117c-10 0-16-6-16-16s6-17 16-17h117c10 0 17 7 17 17z" horiz-adv-x="1000" />

<glyph glyph-name="package-2" unicode="&#xe895;" d="M867 117h-77c-10 0-17-7-17-17s7-17 17-17h77c10 0 16 7 16 17s-6 17-16 17z m-115 33h115c10 0 16 7 16 17s-6 16-16 16h-115c-10 0-17-6-17-16s7-17 17-17z m231-100h-32c10 14 17 31 17 50v650c0 47-36 83-83 83h-202c0 10-6 17-16 17h-200c-10 0-17-7-17-17h-200c-47 0-83-36-83-83v-200h-50c-47 0-84-37-84-83v-367c0-19 6-36 17-50h-33c-10 0-17-7-17-17v-100c0-10 7-16 17-16h16v-50c0-10 7-17 17-17h133c10 0 17 7 17 17v50h217v-50c0-10 6-17 16-17h134c10 0 16 7 16 17v50h217v-50c0-10 7-17 17-17h133c10 0 17 7 17 17v50h16c10 0 17 6 17 16v100c0 10-7 17-17 17z m-333 767v-164l-73 60c-2 2-7 4-10 4s-9-2-10-5l-74-60v165h167z m-450-67c0 28 22 50 50 50h200v-183c0-7 3-12 8-15 7-4 14-2 19 1l90 75 88-75c4-2 8-4 13-3 2 0 4 0 5 2 7 3 10 8 10 15v183h200c29 0 50-22 50-50v-650c0-28-21-50-50-50h-233c10 13 16 29 17 46 0 2 0 3 0 4v367c0 46-37 83-84 83h-133v17c0 10-7 16-17 16h-166c-10 0-17-6-17-16v-17h-50v200z m83-217v17h134v-17-115l-57 45c-5 5-13 5-20 0l-57-45v115z m-216-433v367c0 28 21 50 50 50h66 67v-134c0-6 3-11 8-15 7-3 14-1 19 2l73 58 72-58c4-3 9-4 14-3 2 0 3 0 4 1 7 4 10 9 10 15v134h133c29 0 50-22 50-50v-367c0-28-21-50-50-50h-466c-29 0-50 22-50 50z m100-217h-100v34h100v-34z m383 0h-100v34h100v-34z m383 0h-100v34h100v-34z m34 67h-17-133-250-134-250-133-17v67h84 466 300 84v-67z m-367 150c0 10-7 17-17 17h-50c-10 0-16-7-16-17s6-17 16-17h50c10 0 17 7 17 17z m0 67c0 10-7 16-17 16h-83c-10 0-17-6-17-16s7-17 17-17h83c10 0 17 7 17 17z" horiz-adv-x="1000" />

<glyph glyph-name="package-5" unicode="&#xe896;" d="M917 817h-284v16c0 10-6 17-16 17h-2-232-1c-10 0-17-7-17-17v-16h-282c-46 0-83-37-83-84v-800c0-46 37-83 83-83h834c46 0 83 37 83 83v800c0 47-37 84-83 84z m-517 0h200v-17-197l-88 77c-4 2-9 3-12 3s-8-1-12-3l-88-77v197 17z m567-884c0-28-22-50-50-50h-834c-28 0-50 22-50 50v800c0 29 22 50 50 50h282v-186c0-14 7-24 18-29 12-5 24-3 34 5l83 72 83-72c7-3 14-6 20-6 4 0 9 0 10 1 12 5 19 17 19 29v186h285c28 0 50-21 50-50v-800z m-50 17h-84c-10 0-16-7-16-17s6-16 16-16h84c10 0 16 6 16 16s-6 17-16 17z m0 67h-117c-10 0-17-7-17-17s7-17 17-17h117c10 0 16 7 16 17s-6 17-16 17z m-179 511l-75-75c-73 12-124 39-155 60-5 4-13 4-18 0-35-23-93-53-177-63-8-2-15-8-15-17v-151c0-55 14-109 39-155l-99-99c-6-6-6-16 0-23 4-3 7-5 12-5s8 2 12 5l92 92c18-26 39-49 64-69 24-18 50-33 75-43 4-2 5-2 7-2s3 0 5 0c27 10 52 25 75 44 75 58 120 153 120 253v153c0 3-1 6-2 8l64 64c6 7 6 17 0 23-7 7-17 7-24 0z m-405-246v138c75 12 132 38 167 60 30-19 76-41 136-54l-223-223c-8 25-13 50-13 77v85c20 5 38 12 57 18 8 4 13 14 10 22s-14 13-22 10c-22-8-43-15-65-20-8-2-13-8-13-17v-98c0-35 7-70 20-103l-25-25c-18 40-29 84-29 130z m334 0c0-90-40-175-107-227-20-15-40-27-60-35-20 8-42 20-60 35-24 19-44 42-61 67l288 288v-128z" horiz-adv-x="1000" />

<glyph glyph-name="package" unicode="&#xe897;" d="M917 817h-284v16c0 10-6 17-16 17h-2-232-1c-10 0-17-7-17-17v-16h-282c-46 0-83-37-83-84v-800c0-46 37-83 83-83h834c46 0 83 37 83 83v800c0 47-37 84-83 84z m-517 0h200v-17-197l-88 77c-4 2-9 3-12 3s-8-1-12-3l-88-77v197 17z m567-884c0-28-22-50-50-50h-834c-28 0-50 22-50 50v800c0 29 22 50 50 50h282v-186c0-14 7-24 18-29 12-5 24-3 34 5l83 72 83-72c7-3 14-6 20-6 4 0 9 0 10 1 12 5 19 17 19 29v186h285c28 0 50-21 50-50v-800z m-282 517c-85 10-143 40-177 63-5 4-13 4-18 0-35-23-93-53-177-63-8-2-15-8-15-17v-151c0-100 45-195 120-254 24-18 50-33 75-43 4-2 5-2 7-2s3 0 5 0c27 10 52 25 75 44 75 58 120 153 120 253v153c0 9-7 15-15 17z m-18-168c0-90-40-175-107-227-20-15-40-27-60-35-20 8-42 20-60 35-67 52-107 137-107 227v138c75 12 132 38 167 60 35-22 92-48 167-60v-138z m-222 133c-22-8-43-15-65-20-8-2-13-8-13-17v-98c0-43 10-85 28-122 3-5 8-8 15-8 3 0 5 0 8 2 9 3 12 13 7 21-17 34-25 70-25 107v85c20 5 38 12 57 18 8 4 13 14 10 22s-14 13-22 10z m472-465h-84c-10 0-16-7-16-17s6-16 16-16h84c10 0 16 6 16 16s-6 17-16 17z m0 67h-117c-10 0-17-7-17-17s7-17 17-17h117c10 0 16 7 16 17s-6 17-16 17z" horiz-adv-x="1000" />

</font>
</defs>
</svg>
